[bittorrent] Mutant County Line MetroFresh Atlanta, Georgia 9/9/2021 (Z-Man Schoeps CCM4V'S FOB)

Automated Mailer noreply-bt.e at etree.org
Fri Sep 17 04:34:32 UTC 2021


Band:           Other
Torrent Name:   Mutant County Line MetroFresh Atlanta, Georgia 9/9/2021 (Z-Man Schoeps CCM4V'S FOB)
Uploaded by:    zmanatl
DB Link:        
Details:        http://bt.etree.org/details.php?id=613872

Contact the seeder at http://db.etree.org/zmanatl

If the link to this show does not work, it was probably removed for
being non-trade-friendly.

Description / text file:
-------------------------
Mutant County Line
MetroFresh
Atlanta, Georgia
9/9/2021 

Source: Schoeps CCM4V'S>Lunatec V2>Sound Devices 722 (24/44.1)
FOB/DFC/KFC/ZFC/AARP' 5' From Stage, 4' High
DSP: Sound Devices 722>Sound Forge 10.0>CD Wave>flac(16)
ID3 Tagged In Foobar 2000
Recorded By: Z-Man
Seeded By: Z-Man
A Team Dirty South Recording

Disc I 

01 She Left Me For My Clone
02 Religion
03 Black Water
04 Purple Rain
05 Paradise
06 She Got The Planet In The Divorce
07 Nebraska
08 She's Green
09 Green Back Dollar
10 She Still Thinks I Care
11 I Got Nailed By My Truck
12 Ice Ice Baby 

Pete Mastin - Guitar And Vocals
John Wagner Givens - Bass, Mandolin, And Vocals
Hank Siegelson - Guitar
Tom Lmbardo - Harmonica And Vocals
Kate Marani - Fiddle And Vocals

mutant2021-09-09d01t01.flac:ee04f171166a836a80021522dd4aaf72
mutant2021-09-09d01t02.flac:91ff1c168dfee103e9fc200dc5b720a3
mutant2021-09-09d01t03.flac:40d30dfebce747fd8c574494399eec5b
mutant2021-09-09d01t04.flac:238c141c26f9a94b551e7635f50c28f7
mutant2021-09-09d01t05.flac:d32ae3015242a0cf33d1f6f79bf2b507
mutant2021-09-09d01t06.flac:94d49af6da897c2ad26263d2983657cd
mutant2021-09-09d01t07.flac:5c59071f361bea805eb8caff86162c16
mutant2021-09-09d01t08.flac:c47b6c9e03b0b119f305ec01b4b6d68c
mutant2021-09-09d01t09.flac:c5cc9c85bddbab8c6c5c5281eb9ce40d
mutant2021-09-09d01t10.flac:f4bd92b47f9ad6fe04fb591f30f0c3e3
mutant2021-09-09d01t11.flac:d5c4613095613f5a1aa9081e6ca462d3
mutant2021-09-09d01t12.flac:e8bc6177ef48ad5b42fde4280fd1dcd6

length     expanded size    cdr  WAVE problems  fmt   ratio  filename
     8:21.21       88425836 B   ---   --   ---xx   flac  0.3899  mutant2021-09-09d01t01.flac
     4:00.44       42439532 B   ---   --   ---xx   flac  0.4520  mutant2021-09-09d01t02.flac
     6:26.43       68191580 B   ---   --   ---xx   flac  0.4395  mutant2021-09-09d01t03.flac
     5:12.18       55079180 B   ---   --   ---xx   flac  0.4298  mutant2021-09-09d01t04.flac
     5:48.58       61523660 B   ---   --   ---xx   flac  0.4241  mutant2021-09-09d01t05.flac
     5:23.46       57085436 B   ---   --   ---xx   flac  0.4249  mutant2021-09-09d01t06.flac
     6:43.10       71112764 B   ---   --   ---xx   flac  0.3962  mutant2021-09-09d01t07.flac
     6:11.30       65515004 B   ---   --   ---xx   flac  0.4304  mutant2021-09-09d01t08.flac
     4:50.11       51181916 B   ---   --   ---xx   flac  0.4327  mutant2021-09-09d01t09.flac
     6:56.45       73488284 B   ---   --   ---xx   flac  0.4003  mutant2021-09-09d01t10.flac
     8:34.14       90702572 B   ---   --   ---xx   flac  0.3931  mutant2021-09-09d01t11.flac
     9:10.52       97142348 B   ---   --   ---xx   flac  0.4672  mutant2021-09-09d01t12.flac
    77:39.17      821888112 B                            0.4217  (12 files)





More information about the bittorrent mailing list