[bittorrent] Spafford Candler Park Music Festival Candler Park Atlanta, Georgia 9/11/2021

Automated Mailer noreply-bt.e at etree.org
Thu Sep 16 23:49:24 UTC 2021


Band:           Spafford
Torrent Name:   Spafford Candler Park Music Festival Candler Park Atlanta, Georgia 9/11/2021 
Uploaded by:    zmanatl
DB Link:        
Details:        http://bt.etree.org/details.php?id=613869

Contact the seeder at http://db.etree.org/zmanatl

If the link to this show does not work, it was probably removed for
being non-trade-friendly.

Description / text file:
-------------------------
Spafford
Candler Park Music Festival
Candler Park
Atlanta, Georgia
9/11/2021 

Source: Schoeps CCM4V'S>Lunatec V2>Sound Devices 722 (24/44.1)
FOB/DFC/KFC/ZFC/AARP 69' From Stage, 8' High
DSP: Sound Devices 722>Sound Forge 10.0>CD Wave>flac(16)
ID3 Tagged In F(Z-Man Schoeps CCM4V'S FOB)oobar 2000
Recorded By: Z-Man
Seeded By: Z-Man
A Team Dirty South Recording

Disc I 

01 Introduction
02 People
03 All My Friends >
04 Bee Jam >
05 The Postman

Disc II 

01 Back Door Funk >
02 The Other One >
03 Back Door Funk
04 Outro 

Brian Moss - Guitar And Vocals
Jordan Fairless - Bass And Vocals
Andrew "Red" Johnson - Keyboards And Vocals
Nick Tkachyk - Drums

spafford2021-09-11d01t01.flac:66c137d09baa8330d48f8996bce9d46f
spafford2021-09-11d01t02.flac:7fed9a38985005bdf3b24dc6cb69366c
spafford2021-09-11d01t03.flac:f3a01752c2105c44b09f4fb27ffecb64
spafford2021-09-11d01t04.flac:9fee906ce930c1877bdcb93f08b924ed
spafford2021-09-11d01t05.flac:f3f8de87b4edb580b84fb6247ca45b9c
spafford2021-09-11d02t01.flac:7eb3ad7d51fbce1cab8f9558627c55a9
spafford2021-09-11d02t02.flac:3f19341732eac7d292212bd061411f91
spafford2021-09-11d02t03.flac:6f17cf9687bac90bcdc064be2850e1ec
spafford2021-09-11d02t04.flac:d083d0204085d2a42e0eab9f60febb1e

   length     expanded size    cdr  WAVE problems  fmt   ratio  filename
     2:29.58       26420060 B   ---   --   ---xx   flac  0.3750  spafford2021-09-11d01t01.flac
     9:40.27      102375548 B   ---   --   ---xx   flac  0.5144  spafford2021-09-11d01t02.flac
    17:53.07      189293708 B   ---   --   ---xx   flac  0.5061  spafford2021-09-11d01t03.flac
    14:33.36      154081916 B   ---   --   ---xx   flac  0.5043  spafford2021-09-11d01t04.flac
    17:49.34      188651612 B   ---   --   ---xx   flac  0.5298  spafford2021-09-11d01t05.flac
    16:38.39      176138972 B   ---   --   ---xx   flac  0.4844  spafford2021-09-11d02t01.flac
     7:15.53       76858700 B   ---   --   ---xx   flac  0.5494  spafford2021-09-11d02t02.flac
     5:41.58       60288860 B   ---   --   ---xx   flac  0.5350  spafford2021-09-11d02t03.flac
     1:00.15       10619324 B   ---   --   ---xx   flac  0.4172  spafford2021-09-11d02t04.flac
    93:02.27      984728700 B                            0.5080  (9 files)





More information about the bittorrent mailing list