[bittorrent] Merl Saunders and the Rainforest Band 1995-10-21 Clinch Mountain Harvest Festival, Luttrell, TN (Remastered SBD)

Automated Mailer noreply-bt.e at etree.org
Thu Sep 16 23:20:39 UTC 2021


Band:           Other
Torrent Name:   Merl Saunders and the Rainforest Band 1995-10-21 Clinch Mountain Harvest Festival, Luttrell, TN (Remastered SBD)
Uploaded by:    dfries
DB Link:        
Details:        http://bt.etree.org/details.php?id=613868

Contact the seeder at http://db.etree.org/dfries

If the link to this show does not work, it was probably removed for
being non-trade-friendly.

Description / text file:
-------------------------
Merl Saunders and the Rainforest Band
Clinch Mountain Harvest Festival, Luttrell, TN
October 21, 1995

Track list:

01 Welcome to the Basement
02 The Harder They Come
03 My Funny Valentine
04 Dark Star
05 Boogie On Reggae Woman
06 Paris Blues
07 It's in the Air
08 Blues from the Rainforest
09 Fire on the Mountain
10 Let's Go Get Stoned
11 Bertha
(Encore)
12 I Feel Like Dynamite

Run time: 2 h 9 min 47 sec
Format FLAC 16 bit/48 kHz and AAC

House audio recorded by Alfred Millikan (October 21, 1995): Sony 59-ES @ 48 kHz.
Transfer by Charlie Miller (October 19, 2020): Tascam DA-40 / Tascam DA-3000 / Samplitude Pro X5 Suite @ 48 kHz.
Remastered by D. Fries (September 2021).


*** This is a remaster of the files shared by Charlie Miller October 19, 2020.: ***


"Merl Saunders - October 21, 1995
Clinch Mountain Harvest Festival
Steve and Tad’s House - Luttrell, TN

Recording Info:
SBD > DAT Master (Sony 59-ES/48k)

Transfer Info:
DAT Master (Tascam DA-40) > Tascam DA-3000 > Samplitude Pro X5 Suite > FLAC/48k
(2 Discs Audio / 1 DVD FLAC)

All Transfers and Mastering by Charlie Miller
charliemiller87 at earthlink.net
October 19, 2020

Notes:
-- Recorded by Alfred Millikan
-- Master tapes provided by Jack Wade
-- https://www.facebook.com/Clinch-Mountain-Harvest-Festival-October-21-1995-103151001591469

Setlist:
01 - Introduction
02 - Welcome To The Basement
03 - The Harder They Come
04 - My Funny Valentine
05 - Dark Star
06 - Boogie On Reggae Woman
07 - Paris Blues
08 - It's In The Air
09 - Blues From The Rainforest
10 - Fire On The Mountain
11 - Let's Go Get Stoned
12 - Bertha

Encore:
13 - Encore Break
14 - Thank You (Falettinme Be Mice Elf Agin)
15 - I Feel Like Dynamite


SHNTOOL OUTPUT:
    length     expanded size    cdr  WAVE problems  fmt   ratio  filename
     1:20.102      15379700 B   cxx   --   ---xx   flac  0.3356  01 Introduction.flac
    10:49.945     124789484 B   cxx   --   ---xx   flac  0.5613  02 Welcome To The Basement.flac
    10:21.902     119405176 B   cxx   --   ---xx   flac  0.5172  03 The Harder They Come.flac
    11:01.757     127057424 B   cxx   --   ---xx   flac  0.4581  04 My Funny Valentine.flac
    12:39.603     145843772 B   cxx   --   ---xx   flac  0.4832  05 Dark Star.flac
    11:03.539     127399556 B   cxx   --   ---xx   flac  0.5232  06 Boogie On Reggae Woman.flac
     7:35.109      87380968 B   cxx   --   ---xx   flac  0.5360  07 Paris Blues.flac
    12:28.111     143637368 B   cxx   --   ---xx   flac  0.5517  08 It's In The Air.flac
    15:51.284     182646584 B   cxx   --   ---xx   flac  0.4912  09 Blues From The Rainforest.flac
    16:07.456     185751556 B   cxx   --   ---xx   flac  0.5485  10 Fire On The Mountain.flac
     4:38.933      53555184 B   cxx   --   ---xx   flac  0.5238  11 Let's Go Get Stoned.flac
     7:26.122      85655436 B   cxx   --   ---xx   flac  0.6430  12 Bertha.flac
     1:38.855      18980252 B   cxx   --   ---xx   flac  0.3865  13 Encore Break.flac
     2:38.838      30496884 B   cxx   --   ---xx   flac  0.5811  14 Thank You (Falettinme Be Mice Elf Agin).flac
     4:10.123      48023752 B   cxx   --   ---xx   flac  0.5794  15 I Feel Like Dynamite.flac
   129:51.679    1496003096 B                            0.5254  (15 files)"





More information about the bittorrent mailing list