[bittorrent] Marco Benevento Trio Candler Park Music Festival Candler Park Atlanta, Georgia 9/11/2021 (Z-Man Schoeps CCM4V'S FOB)

Automated Mailer noreply-bt.e at etree.org
Thu Sep 16 17:31:38 UTC 2021


Band:           Marco Benevento
Torrent Name:   Marco Benevento Trio Candler Park Music Festival Candler Park Atlanta, Georgia 9/11/2021 (Z-Man Schoeps CCM4V'S FOB)
Uploaded by:    zmanatl
DB Link:        
Details:        http://bt.etree.org/details.php?id=613867

Contact the seeder at http://db.etree.org/zmanatl

If the link to this show does not work, it was probably removed for
being non-trade-friendly.

Description / text file:
-------------------------
Marco Benevento Trio
Candler Park Music Festival
Candler Park
Atlanta, Georgia
9/11/2021 

Source: Schoeps CCM4V'S>Lunatec V2>Sound Devices 722 (24/44.1)
FOB/DFC/KFC/ZFC/AARP 69' From Stage, 8' High
DSP: Sound Devices 722>Sound Forge 10.0>CD Wave>flac(16)
ID3 Tagged In Foobar 2000
Recorded By: Z-Man
Seeded By: Z-Man
A Team Dirty South Recording

Disc I 

01 Introduction
02 Dropkick
03 If I Get To See You At All
04 Let It Slide
05 Greenpoint
06 Band Introductions
07 The Story Of Fred Short Parts I - VI
08 ?
09 Stay In Line
10 I Can't See The Light 
11 Send It On A Rocket
12 At The Show >
13 Drum Solo >
14 At The Show 
15 Outro

Marco Benevento - Keyboards And Vocals
Karina Rykman - Bass And Vocals
DB - Drums

marco2021-09-11d01t01.flac:49bac62a9296d6c2865ac22e4ec9f1dd
marco2021-09-11d01t02.flac:f62c1f3e7eea00f8dc191298ca6d035a
marco2021-09-11d01t03.flac:2852dff5dbf7fd792c55ef8ca1a81951
marco2021-09-11d01t04.flac:26d84b1b07eacf87254c10cfe1ea0d8c
marco2021-09-11d01t05.flac:a14848ac4e250099ae50f305125f5afd
marco2021-09-11d01t06.flac:bb9089365de309abec70f9585282ab9d
marco2021-09-11d01t07.flac:1068862ce05cc8268530785432927ff0
marco2021-09-11d01t08.flac:d93fcf0a239e9cf9206d33fffdccf92d
marco2021-09-11d01t09.flac:e20519c56b8c247b27b9f25b1fa27c72
marco2021-09-11d01t10.flac:cf4b26314606a33a259a6a4acf2454b4
marco2021-09-11d01t11.flac:ea513de39f443a6ce6453f609a7d956d
marco2021-09-11d01t12.flac:4a241b59e8b630098ad37fbef4526dcb
marco2021-09-11d01t13.flac:51d95fad1a48ec8172337f41a98cdd7d
marco2021-09-11d01t14.flac:717bb6df9131ae58dd2353333c3280c7
marco2021-09-11d01t15.flac:2341beb368b502d83b6a6eba47ad39a5

  length     expanded size    cdr  WAVE problems  fmt   ratio  filename
     0:36.44        6453932 B   ---   --   ---xx   flac  0.3592  marco2021-09-11d01t01.flac
    10:44.05      113613404 B   ---   --   ---xx   flac  0.4257  marco2021-09-11d01t02.flac
     6:32.16       69186476 B   ---   --   ---xx   flac  0.4550  marco2021-09-11d01t03.flac
     3:20.41       35376476 B   ---   --   ---xx   flac  0.4075  marco2021-09-11d01t04.flac
     8:41.63       92052620 B   ---   --   ---xx   flac  0.4207  marco2021-09-11d01t05.flac
     1:15.56       13361756 B   ---   --   ---xx   flac  0.3385  marco2021-09-11d01t06.flac
     6:18.45       66785084 B   ---   --   ---xx   flac  0.5249  marco2021-09-11d01t07.flac
     3:23.68       35969180 B   ---   --   ---xx   flac  0.5001  marco2021-09-11d01t08.flac
     7:14.19       76602332 B   ---   --   ---xx   flac  0.4742  marco2021-09-11d01t09.flac
    10:21.04      109553852 B   ---   --   ---xx   flac  0.5284  marco2021-09-11d01t10.flac
     7:11.14       76061372 B   ---   --   ---xx   flac  0.3954  marco2021-09-11d01t11.flac
     6:21.14       67241372 B   ---   --   ---xx   flac  0.4958  marco2021-09-11d01t12.flac
     0:44.07        7778108 B   ---   --   ---xx   flac  0.5018  marco2021-09-11d01t13.flac
     0:59.32       10482908 B   ---   --   ---xx   flac  0.4965  marco2021-09-11d01t14.flac
     1:22.46       14573036 B   ---   --   ---xx   flac  0.3890  marco2021-09-11d01t15.flac
    75:07.24      795091908 B                            0.4594  (15 files)





More information about the bittorrent mailing list