[bittorrent] Barry Richman Blues Jam The Rusty Barrel Marietta, Georgia 9/9/2021 (Z-Man Schoeps CCM4V'S FOB)

Automated Mailer noreply-bt.e at etree.org
Thu Sep 16 15:28:19 UTC 2021


Band:           Other
Torrent Name:   Barry Richman Blues Jam The Rusty Barrel Marietta, Georgia 9/9/2021 (Z-Man Schoeps CCM4V'S FOB)
Uploaded by:    zmanatl
DB Link:        
Details:        http://bt.etree.org/details.php?id=613866

Contact the seeder at http://db.etree.org/zmanatl

If the link to this show does not work, it was probably removed for
being non-trade-friendly.

Description / text file:
-------------------------
Barry Richman Blues Jam
The Rusty Barrel
Marietta, Georgia
9/9/2021 

Source: Schoeps CCM4V'S>Lunatec V2>Sound Devices 722 (24/44.1)
FOB/DFC/KFC/ZFC/AARP' 6' From Stage, 6 1/2' High
DSP: Sound Devices 722>Sound Forge 10.0>CD Wave>flac(16)
ID3 Tagged In Foobar 2000
Recorded By: Z-Man
Seeded By: Z-Man
A Team Dirty South Recording

Disc I 

01 Greeting/Banter
02 Priscilla
03 Mad World
04 Instrumental
05 Goin' Down
06 Band Introductions/Outro

Barry Richman - Guitar 
Dana McCarthy - Bass And Vocals
Charlie Korch - Drums And Vocals

barry2021-09-09d01t01.flac:4e7f55dee5eaf959c012d2d88bf22bf4
barry2021-09-09d01t02.flac:483609100f9accca1b300c3d6e862c27
barry2021-09-09d01t03.flac:14aa20f10253d157995f05f904c3c869
barry2021-09-09d01t04.flac:cd6543e6ffc6928551b2777285b23131
barry2021-09-09d01t05.flac:006ebde81ad5d5097b000854735aad7f
barry2021-09-09d01t06.flac:bd84c15743ec3a851403f95479690008

 length     expanded size    cdr  WAVE problems  fmt   ratio  filename
     1:23.01       14643596 B   ---   --   ---xx   flac  0.3337  barry2021-09-09d01t01.flac
     6:44.10       71289164 B   ---   --   ---xx   flac  0.4656  barry2021-09-09d01t02.flac
     5:23.08       56996060 B   ---   --   ---xx   flac  0.5640  barry2021-09-09d01t03.flac
     3:35.06       37940156 B   ---   --   ---xx   flac  0.5893  barry2021-09-09d01t04.flac
     6:41.49       70851692 B   ---   --   ---xx   flac  0.5483  barry2021-09-09d01t05.flac
     1:09.27       12235148 B   ---   --   ---xx   flac  0.3754  barry2021-09-09d01t06.flac
    24:56.26      263955816 B                            0.5153  (6 files)






More information about the bittorrent mailing list