[bittorrent] Webster Candler Park Music Festival Candler Park Atlanta, Georgia 9/11/2021 (Z-Man Schoeps CCM4V'S FOB)

Automated Mailer noreply-bt.e at etree.org
Thu Sep 16 00:47:30 UTC 2021


Band:           Other
Torrent Name:   Webster Candler Park Music Festival Candler Park Atlanta, Georgia 9/11/2021 (Z-Man Schoeps CCM4V'S FOB)
Uploaded by:    zmanatl
DB Link:        
Details:        http://bt.etree.org/details.php?id=613865

Contact the seeder at http://db.etree.org/zmanatl

If the link to this show does not work, it was probably removed for
being non-trade-friendly.

Description / text file:
-------------------------
Webster
Candler Park Music Festival
Candler Park
Atlanta, Georgia
9/11/2021 

Source: Schoeps CCM4V'S>Lunatec V2>Sound Devices 722 (24/44.1)
FOB/DFC/KFC/ZFC/AARP 69' From Stage, 8' High
DSP: Sound Devices 722>Sound Forge 10.0>CD Wave>flac(16)
ID3 Tagged In Foobar 2000
Recorded By: Z-Man
Seeded By: Z-Man
A Team Dirty South Recording

Disc I 

01 Introduction
02 Hey Pockey Way >
03 Uncle John's Band 
04 Me And My Uncle >
05 Cumberland Blues
06 Lovin' Cup
07 Back On The Train
08 Bertha
09 Wild Night
10 Goin' Down The Road Feelin' Bad
11 Outro

Byron Alterman - Guitar And Vocals
Bill Chanler - Guitar And Vocals
Roger Krystopos - Bass
Diane Robson - Keyboards And Vocals
Jay Smith - Drums

webster2021-09-10d01t01.flac:47d4f489aec3bc523d41b47762429863
webster2021-09-10d01t02.flac:d8270f5d7534e84e5929c329c2968228
webster2021-09-10d01t03.flac:e59e7e5fb25b24f9ea1f8aa9079f662d
webster2021-09-10d01t04.flac:de0c404ef66e02e582ce7f60ce897323
webster2021-09-10d01t05.flac:d161f48bb3a93d5dacf0d21bb09c8327
webster2021-09-10d01t06.flac:d66b620458ef6fe2c8ab60cd8941d9f2
webster2021-09-10d01t07.flac:7bd7a111ceed29e79cb26c6e45503a8e
webster2021-09-10d01t08.flac:d1b6ae47c5cdfbb70a13a145434e1262
webster2021-09-10d01t09.flac:9d0c2f6291333c2d54f13b1abc9b2b7f
webster2021-09-10d01t10.flac:f0dffc331502be74b51f3fd70c9ddc00
webster2021-09-10d01t11.flac:d8a5195c798386d77c60101c17c673cb

length     expanded size    cdr  WAVE problems  fmt   ratio  filename
     0:32.41        5741276 B   ---   --   ---xx   flac  0.3890  webster2021-09-10d01t01.flac
     5:44.56       60813356 B   ---   --   ---xx   flac  0.4558  webster2021-09-10d01t02.flac
    10:12.61      108100316 B   ---   --   ---xx   flac  0.4333  webster2021-09-10d01t03.flac
     5:00.07       52936508 B   ---   --   ---xx   flac  0.4417  webster2021-09-10d01t04.flac
     7:18.37       77350268 B   ---   --   ---xx   flac  0.4529  webster2021-09-10d01t05.flac
     5:23.33       57054860 B   ---   --   ---xx   flac  0.4590  webster2021-09-10d01t06.flac
     7:33.06       79923356 B   ---   --   ---xx   flac  0.4309  webster2021-09-10d01t07.flac
     7:43.46       81781436 B   ---   --   ---xx   flac  0.4637  webster2021-09-10d01t08.flac
     5:09.53       54632300 B   ---   --   ---xx   flac  0.4519  webster2021-09-10d01t09.flac
     5:53.56       62400956 B   ---   --   ---xx   flac  0.4528  webster2021-09-10d01t10.flac
     1:19.21       13985036 B   ---   --   ---xx   flac  0.4105  webster2021-09-10d01t11.flac
    61:51.42      654719668 B                            0.4467  (11 files)





More information about the bittorrent mailing list