[bittorrent] Brittany Howard Ameris Bank Amphitheatre Alpharetta, Georgia 9/13/2021 (Z-Man Schoeps CCM4V'S FOB)

Automated Mailer noreply-bt.e at etree.org
Wed Sep 15 03:58:59 UTC 2021


Band:           Other
Torrent Name:   Brittany Howard Ameris Bank Amphitheatre Alpharetta, Georgia 9/13/2021 (Z-Man Schoeps CCM4V'S FOB)
Uploaded by:    zmanatl
DB Link:        
Details:        http://bt.etree.org/details.php?id=613860

Contact the seeder at http://db.etree.org/zmanatl

If the link to this show does not work, it was probably removed for
being non-trade-friendly.

Description / text file:
-------------------------
Brittany Howard
Ameris Bank Amphitheatre
Alpharetta, Georgia
9/13/2021 

Source: Schoeps CCM4V'S>Lunatec V2>Sound Devices 722 (24/44.1)
FOB/DLFC/KFC/ZFC/AARP Clamped To The Front Rail Above The Pit, 7' High
DSP: Sound Devices 722>Sound Forge 10.0>CD Wave>flac(16)
ID3 Tagged In Foobar 2000
Recorded By: Z-Man
Seeded By: Z-Man
A Team Dirty South Recording

Disc I 

01 ?
02 ?
03 ?
04 Stay High
05 ? >
06 *Jam >
07 You Were What I Thought About >
08 ? >
09 ? >
10 ? >
11 ? >
12 ? >
13 Drum Solo >
14 ?
15 ? >
16 Revolution
17 ?

* With Band Introductions

Brittany Howard - Guitar And Vocals
Zac Cockrell- Bass
Brad Allen Williams - Guitar
Allan Shaquer - Guitar
Louis Buchannon - Keyboards
Nate Smith - Drums
Shanea Johnston - Vocals
? - Vocals

brittany2021-09-13d01t01.flac:fa115e1293eebbb805d342a5b7a295e8
brittany2021-09-13d01t02.flac:d1f775f3f1c4821b460825fce7697fa2
brittany2021-09-13d01t03.flac:a2a073731f9c5657244fb5d420b90daa
brittany2021-09-13d01t04.flac:6141e96c4dc8a34e211408231142e922
brittany2021-09-13d01t05.flac:334e2971181be1de3814bc1bf16bc060
brittany2021-09-13d01t06.flac:720c0a6e4a9a9d2cbf6ba727fe576fa6
brittany2021-09-13d01t07.flac:4ea81356f21a56aa5633a499dd6d5fdd
brittany2021-09-13d01t08.flac:a27cb2c571f84374155161bd6403b03f
brittany2021-09-13d01t09.flac:c1da5869328778bbc6cb89d488175e5d
brittany2021-09-13d01t10.flac:6b2f2228c3bbb3c283dfcc6a03884b67
brittany2021-09-13d01t11.flac:31e9f833850907b399220b9aefe18cbf
brittany2021-09-13d01t12.flac:c5144386ac6e61b1a8932497e6e503f6
brittany2021-09-13d01t13.flac:492f62cb0623161cc83972b585386fd4
brittany2021-09-13d01t14.flac:a0e0cea4a1006c6f6ab97a4f384bcad6
brittany2021-09-13d01t15.flac:6393093007d504ae6e4775e248bcf3b5
brittany2021-09-13d01t16.flac:fbb6b07a84cb2f3248af9ebb90ff74f0
brittany2021-09-13d01t17.flac:40b5a63e2c8b82661ac454912911fb9d

 length     expanded size    cdr  WAVE problems  fmt   ratio  filename
     3:49.31       40468556 B   ---   --   ---xx   flac  0.4951  brittany2021-09-13d01t01.flac
     2:38.06       27885356 B   ---   --   ---xx   flac  0.4754  brittany2021-09-13d01t02.flac
     4:20.38       45953420 B   ---   --   ---xx   flac  0.4429  brittany2021-09-13d01t03.flac
     4:05.72       43387388 B   ---   --   ---xx   flac  0.4439  brittany2021-09-13d01t04.flac
     3:50.73       40743740 B   ---   --   ---xx   flac  0.4343  brittany2021-09-13d01t05.flac
     1:11.23       12578540 B   ---   --   ---xx   flac  0.4496  brittany2021-09-13d01t06.flac
     2:47.33       29536460 B   ---   --   ---xx   flac  0.4827  brittany2021-09-13d01t07.flac
     3:17.05       34762604 B   ---   --   ---xx   flac  0.5188  brittany2021-09-13d01t08.flac
     4:40.74       49566092 B   ---   --   ---xx   flac  0.4227  brittany2021-09-13d01t09.flac
     2:28.27       26170748 B   ---   --   ---xx   flac  0.4382  brittany2021-09-13d01t10.flac
     5:16.15       55777724 B   ---   --   ---xx   flac  0.4477  brittany2021-09-13d01t11.flac
     3:24.26       36046796 B   ---   --   ---xx   flac  0.4766  brittany2021-09-13d01t12.flac
     2:08.03       22586300 B   ---   --   ---xx   flac  0.4532  brittany2021-09-13d01t13.flac
     2:25.26       25639196 B   ---   --   ---xx   flac  0.5139  brittany2021-09-13d01t14.flac
     1:39.08       17482460 B   ---   --   ---xx   flac  0.4564  brittany2021-09-13d01t15.flac
     3:51.23       40802540 B   ---   --   ---xx   flac  0.4993  brittany2021-09-13d01t16.flac
     4:59.71       52910636 B   ---   --   ---xx   flac  0.4928  brittany2021-09-13d01t17.flac
    56:54.29      602298556 B                            0.4665  (17 files)






More information about the bittorrent mailing list