[bittorrent] Swami Gone Bananas Swami After Dark Live The Treehouse Theatre Tucker, Georgia 8/29/2021 (Z-Man Schoeps CCM4V'S FOB)

Automated Mailer noreply-bt.e at etree.org
Wed Sep 15 01:50:14 UTC 2021


Band:           Other
Torrent Name:   Swami Gone Bananas  Swami After Dark Live The Treehouse Theatre Tucker, Georgia 8/29/2021 (Z-Man Schoeps CCM4V'S FOB)
Uploaded by:    zmanatl
DB Link:        
Details:        http://bt.etree.org/details.php?id=613858

Contact the seeder at http://db.etree.org/zmanatl

If the link to this show does not work, it was probably removed for
being non-trade-friendly.

Description / text file:
-------------------------
Swami Gone Bananas 
Swami After Dark Live
The Treehouse Theatre
Tucker, Georgia
8/29/2021 

Source: Schoeps CCM4V'S>Lunatec V2>Sound Devices 722 (24/44.1)
FOB/DFC/KFC/ZFC/AARP 15' From Stage, 6 1/2' High
DSP: Sound Devices 722>Sound Forge 10.0>CD Wave>flac(16)
ID3 Tagged In Foobar 2000
Recorded By: Z-Man
Seeded By: Z-Man
A Team Dirty South Recording

Disc I 

01 Greeting/Jam >
02 Key To The Highway
03 Instrumental
04 Thanks To Our Sponsors
05 Ying Yang
06 Ain't Got No Onions
07 Don't Think Twice, It's Alright
08 Tennessee Jed
09 I'm Tired

Disc II 

01 Shopping For Clothes
02 Thriftstore Nightmare
03 I Went To Winder To Find Her, And Tucker To Pray
04 Had To Cry Today
05 Roadhouse Blues
06 Picture In A Frame
07 Every Picture Tells A Story
08 Get Your Man A Bottle Of Red Wine
09 Dream A Little Dream Of Me

Michael "Swami" Schulman - Guitar And Vocals
Richard Hurt - Guitar And Vocals
Dave "Deuce And A Quarter" Roth - Bass And Vocals
J R Hawkins - Percussion And Drums
Bobby Andre - Drums

swami2021-08-29d01t01.flac:52c86e071c1bcba3e31e9fa6594f9125
swami2021-08-29d01t02.flac:86fb05f4dd632205b2874ae8cd285cc0
swami2021-08-29d01t03.flac:d22accd80ca2587db99912a40f3d0fa7
swami2021-08-29d01t04.flac:7604d57d7658304e56f7fee91e19191b
swami2021-08-29d01t05.flac:4bc72f8d84cebd5be51f5617a8bf5433
swami2021-08-29d01t06.flac:62186f344c40988027fcabf2c8e742ac
swami2021-08-29d01t07.flac:2f6e1506c2090f64d040c70ff95196e0
swami2021-08-29d01t08.flac:e0bf2a37d5027a750381385369b12e48
swami2021-08-29d01t09.flac:5f6eade15eea8dea12b807426a633834
swami2021-08-29d02t01.flac:bf291eb82a9f060517faa862cf327011
swami2021-08-29d02t02.flac:6d0f896cc8d88987b46159cd54a10912
swami2021-08-29d02t03.flac:c93ee2037340f1036bcfcf764d43edab
swami2021-08-29d02t04.flac:3f77a250204b1e7320fd21d04696e741
swami2021-08-29d02t05.flac:328b9711bf90bdd840a8410a3ce12f79
swami2021-08-29d02t06.flac:3f4db79771185d9f584912864ce8d38b
swami2021-08-29d02t07.flac:0662f1849cfdb564819ad3b53b2b12f1
swami2021-08-29d02t08.flac:8d5a5a7a6b3ac9762ffd559f01ae318e
swami2021-08-29d02t09.flac:1bc64758e0bbcb533de33fe748e2ceb7

  length     expanded size    cdr  WAVE problems  fmt   ratio  filename
     1:52.41       19853276 B   ---   --   ---xx   flac  0.2787  swami2021-08-29d01t01.flac
     6:45.46       71550236 B   ---   --   ---xx   flac  0.3879  swami2021-08-29d01t02.flac
     5:00.30       52990604 B   ---   --   ---xx   flac  0.4018  swami2021-08-29d01t03.flac
     1:45.20       18569084 B   ---   --   ---xx   flac  0.3066  swami2021-08-29d01t04.flac
     4:24.62       46715468 B   ---   --   ---xx   flac  0.4542  swami2021-08-29d01t05.flac
     6:19.03       66862700 B   ---   --   ---xx   flac  0.4431  swami2021-08-29d01t06.flac
     6:07.30       64809404 B   ---   --   ---xx   flac  0.4498  swami2021-08-29d01t07.flac
     5:54.12       62473868 B   ---   --   ---xx   flac  0.4847  swami2021-08-29d01t08.flac
     4:14.61       44949116 B   ---   --   ---xx   flac  0.4667  swami2021-08-29d01t09.flac
     8:45.69       92772332 B   ---   --   ---xx   flac  0.3566  swami2021-08-29d02t01.flac
     4:33.15       48192524 B   ---   --   ---xx   flac  0.4714  swami2021-08-29d02t02.flac
     5:11.31       54933356 B   ---   --   ---xx   flac  0.4266  swami2021-08-29d02t03.flac
     7:40.09       81165212 B   ---   --   ---xx   flac  0.4952  swami2021-08-29d02t04.flac
     5:41.38       60241820 B   ---   --   ---xx   flac  0.4980  swami2021-08-29d02t05.flac
     3:49.72       40564988 B   ---   --   ---xx   flac  0.3691  swami2021-08-29d02t06.flac
     3:59.74       42333692 B   ---   --   ---xx   flac  0.4829  swami2021-08-29d02t07.flac
     5:24.68       57313580 B   ---   --   ---xx   flac  0.4577  swami2021-08-29d02t08.flac
     2:52.65       30493724 B   ---   --   ---xx   flac  0.3825  swami2021-08-29d02t09.flac
    90:23.71      956784984 B                            0.4330  (18 files)






More information about the bittorrent mailing list