[bittorrent] My Morning Jacket Ameris Bank Amphitheatre Alpharetta, Georgia 9/13/2021 (Z-Man Schoeps CCM4V'S FOB)

Automated Mailer noreply-bt.e at etree.org
Tue Sep 14 15:16:13 UTC 2021


Band:           My Morning Jacket
Torrent Name:   My Morning Jacket Ameris Bank Amphitheatre Alpharetta, Georgia 9/13/2021 (Z-Man Schoeps CCM4V'S FOB) 
Uploaded by:    zmanatl
DB Link:        
Details:        http://bt.etree.org/details.php?id=613849

Contact the seeder at http://db.etree.org/zmanatl

If the link to this show does not work, it was probably removed for
being non-trade-friendly.

Description / text file:
-------------------------
My Morning Jacket
Ameris Bank Amphitheatre
Alpharetta, Georgia
9/13/2021 

Source: Schoeps CCM4V'S>Lunatec V2>Sound Devices 722 (24/44.1)
FOB/DLFC/KFC/ZFC/AARP Clamped To The Front Rail Above The Pit, 7' High
DSP: Sound Devices 722>Sound Forge 10.0>CD Wave>flac(16)
ID3 Tagged In Foobar 2000
Recorded By: Z-Man
Seeded By: Z-Man
A Team Dirty South Recording

Disc I 

01 Intro Music >
02 Touch Me I'm Going To Scream Part I >
03 Touch Me I'm Going To Scream Part II
04 It Beats 4 U
05 Spring (Among The Living)
06 Circuital >
07 I'm Amazed 
08 Climbing The Ladder 
09 Feel You 
10 Jim James Banter
11 Wonderful (The Way I Feel)
12 Run It

Disc II 

01 Low Down >
02 Regularly Scheduled Programming >
03 Off The Record >
04 Dondante 
05 Love Love Love
06 Wordless Chorus >
07 One Bib Holiday
Encore:
08 Victory Dance >
09 Anytime 
10 Wasted

mmj2021-09-13d01t01.flac:826a2eb1e89704a18657ad3f8a90953f
mmj2021-09-13d01t02.flac:4a61fe9f13a0724efc4477d2db18e1af
mmj2021-09-13d01t03.flac:3f918757090390200c2f2444b8ddb6e6
mmj2021-09-13d01t04.flac:0d3560285bc8f7952327b9ef41bb610d
mmj2021-09-13d01t05.flac:fb31a0b3f582f1901ba3fe4ee1533fc3
mmj2021-09-13d01t06.flac:2dfd7772e94f1fa7b86f6ba2a2a26d4b
mmj2021-09-13d01t07.flac:0ef70971018bc368a116d35fa3390448
mmj2021-09-13d01t08.flac:672bf7425944f112bd2c19e2c478a14a
mmj2021-09-13d01t09.flac:a142272a1ae2084c1f18a4532691154f
mmj2021-09-13d01t10.flac:7a706e9d29a14e32cf9c37cf807706ea
mmj2021-09-13d01t11.flac:8fe226de11fa841fbfad1c94d347e844
mmj2021-09-13d01t12.flac:f805f9ec81aee39ac5638bcda9cab6b5
mmj2021-09-13d02t01.flac:75c3ad5e148cfa39a783fe9fbdaaa91b
mmj2021-09-13d02t02.flac:c701857d9a74ead4b045dbfd14930819
mmj2021-09-13d02t03.flac:210b429f403925e30d2932e897f967af
mmj2021-09-13d02t04.flac:c1d412126a0ae7ed46b64ba355c36b82
mmj2021-09-13d02t05.flac:8518bd5274f651defecdd7deff735934
mmj2021-09-13d02t06.flac:fd27c7d162988cdd50ecbc5506e05af3
mmj2021-09-13d02t07.flac:485e684e83dd9d60f70f69b8822adbec
mmj2021-09-13d02t08.flac:1f134bf87d92d760d33aa560b70c3aab
mmj2021-09-13d02t09.flac:1011f356cc6d3861f35f5494a3de7fc7
mmj2021-09-13d02t10.flac:40f35e3ef669c11116ad871a98f37cea

  length     expanded size    cdr  WAVE problems  fmt   ratio  filename
     2:27.04       25940252 B   ---   --   ---xx   flac  0.4001  mmj2021-09-13d01t01.flac
     3:52.38       41014220 B   ---   --   ---xx   flac  0.5003  mmj2021-09-13d01t02.flac
     8:19.54       88150652 B   ---   --   ---xx   flac  0.4685  mmj2021-09-13d01t03.flac
     4:46.27       50513948 B   ---   --   ---xx   flac  0.4568  mmj2021-09-13d01t04.flac
     7:33.49       80024492 B   ---   --   ---xx   flac  0.4928  mmj2021-09-13d01t05.flac
     5:49.71       61730636 B   ---   --   ---xx   flac  0.4883  mmj2021-09-13d01t06.flac
     6:21.63       67356620 B   ---   --   ---xx   flac  0.4325  mmj2021-09-13d01t07.flac
     3:20.00       35280044 B   ---   --   ---xx   flac  0.4955  mmj2021-09-13d01t08.flac
     7:06.36       75231116 B   ---   --   ---xx   flac  0.4559  mmj2021-09-13d01t09.flac
     1:24.53       14942300 B   ---   --   ---xx   flac  0.3931  mmj2021-09-13d01t10.flac
     6:33.16       69362876 B   ---   --   ---xx   flac  0.3881  mmj2021-09-13d01t11.flac
     6:41.54       70863452 B   ---   --   ---xx   flac  0.4201  mmj2021-09-13d01t12.flac
     3:50.33       40649660 B   ---   --   ---xx   flac  0.4820  mmj2021-09-13d02t01.flac
     5:27.10       57706364 B   ---   --   ---xx   flac  0.4390  mmj2021-09-13d02t02.flac
     7:39.04       80977052 B   ---   --   ---xx   flac  0.4991  mmj2021-09-13d02t03.flac
    16:57.26      179459996 B   ---   --   ---xx   flac  0.4373  mmj2021-09-13d02t04.flac
     4:42.20       49791884 B   ---   --   ---xx   flac  0.4565  mmj2021-09-13d02t05.flac
     5:08.05       54343004 B   ---   --   ---xx   flac  0.4608  mmj2021-09-13d02t06.flac
     7:37.30       80685404 B   ---   --   ---xx   flac  0.5114  mmj2021-09-13d02t07.flac
     6:17.45       66608684 B   ---   --   ---xx   flac  0.4722  mmj2021-09-13d02t08.flac
     4:07.16       43608476 B   ---   --   ---xx   flac  0.5095  mmj2021-09-13d02t09.flac
     8:56.57       94684508 B   ---   --   ---xx   flac  0.4817  mmj2021-09-13d02t10.flac
   135:00.36     1428925640 B                            0.4622  (22 files)






More information about the bittorrent mailing list