[bittorrent] gd1983-10-14.153345.mtx.dusborne.flac16

Automated Mailer noreply-bt.e at etree.org
Tue Sep 14 13:19:50 UTC 2021


Band:           Grateful Dead
Torrent Name:   gd1983-10-14.153345.mtx.dusborne.flac16
Uploaded by:    dusborne
DB Link:        
Details:        http://bt.etree.org/details.php?id=613848

Contact the seeder at http://db.etree.org/dusborne

If the link to this show does not work, it was probably removed for
being non-trade-friendly.

Description / text file:
-------------------------
Grateful Dead
October 14, 1983
Hartford Civic Center
Hartford, CT

2 Source Matrix

Soundboard (shnid:150969)
--------------------------------------------------------------------------------
gd1983-10-14.150969.sbd.eaton-latvala.miller.flac1644

Recording Info:
SBD > Cassette Master > DAT (Panasonic SV-3700/44.1k) > DAT (Panasonic SV-3800)

Transfer Info:
DAT (Panasonic SV-3800) > Avid MBox Pro > Pro Tools 12 > WAV (16-bit/44.1k)

Additional Mastering:
WAV > Adobe Audition 2020 > Samplitude Pro X5 Suite > FLAC
(3 Discs Audio)

Patch Info:
(FOB) Sennheiser 421 > Cassette Master (shnid=103233) supplies:
C.C. Rider (4:41-5:29)
Fire On The Mountain (6:35-6:52)
Drums (4:39-5:12)

Original Transfer and Mastering by Rob Eaton
Additional Mastering by Charlie Miller
charliemiller87 at earthlink.net
November 29, 2020

Notes:
-- Thanks to Rob Eaton and Dick Latvala for this source
-- Thanks to Jim Wise for the patch source

Audience (shnid:151153)
-------------------------------------------------------------------------------
gd1983-10-14.151153.senn-neumann.eaton.miller.flac2496

Recording Info:
Sennheiser 441 + (1) Neumann U87 blend > Cassette Master (Nakamichi 550)

Transfer Info:
Cassette Master (Nakamichi Dragon) > Avid MBox Pro > Pro Tools 12 > WAV (24-bit/96k)

Additional Mastering:
WAV > Adobe Audition 2020 > Samplitude Pro X5 Suite > FLAC/24
(1 DVD FLAC)

Patch Info:
(FOB) Sennheiser 421 > Cassette Master (shnid=103233) supplies:
Drums (complete track)
Space (0:00 - 0:48) 

Transfer and Mastering by Rob Eaton
Additional Mastering by Charlie Miller
charliemiller87 at earthlink.net
December 11, 2020

Notes:
-- Thanks to Rob Eaton for sharing his recording
-- Thanks to Jim Wise for the patch source

---------------------------------------------------------------------------------------------------------
--- Thank you Charlie Miller for your work on both the SBD and AUD.
--- Thank you Rob Eaton for sharing the SBD and recording the AUD.
--- Thank you Jim wise for recording the show.
--- Thank you Dick Latvala for sharing the SBD.
--- Thank you Germain for your advice, encouragement, guidance and seeding.

Matrix by dusborne

09-13-2021
-------------------------------------------------------------------------------

Set 1:
101 - gd83-10-14s1t01 - Tuning
102 - gd83-10-14s1t02 - Alabama Getaway ->
103 - gd83-10-14s1t03 - Greatest Story Ever Told
104 - gd83-10-14s1t04 - They Love Each Other
105 - gd83-10-14s1t05 - Mama Tried ->
106 - gd83-10-14s1t06 - Big River
107 - gd83-10-14s1t07 - Althea ->
108 - gd83-10-14s1t08 - C.C. Rider
109 - gd83-10-14s1t09 - Tennessee Jed
110 - gd83-10-14s1t10 - Hell In A Bucket ->
111 - gd83-10-14s1t11 - Keep Your Day Job

Set 2:
201 - gd83-10-14s2t01 - Tuning
202 - gd83-10-14s2t02 - Scarlet Begonias ->
203 - gd83-10-14s2t03 - Fire On The Mountain
204 - gd83-10-14s2t04 - Estimated Prophet ->
205 - gd83-10-14s2t05 - Eyes Of The World ->
206 - gd83-10-14s2t06 - Drums ->
207 - gd83-10-14s2t07 - Space ->
208 - gd83-10-14s2t08 - Spanish Jam ->
209 - gd83-10-14s2t09 - The Other One ->
210 - gd83-10-14s2t10 - Stella Blue ->
211 - gd83-10-14s2t11 - Sugar Magnolia

Encore:
212 - gd83-10-14s2t12 - U.S. Blues

------------------------------------------------------------------------------------
Tagging notes:
Show information is embedded within the headerof each flac file. 
It will display on any player capable of directly playing flac files. 
If converted to wav during processing, all tags will be stripped, 
however audio data will remain unaffected. 
If you must transcode to a lossy format, do so directly Flac > Lossy.
Use ffp to validate audio integrity.
Md5 values will change if tagging is altered.

Dave Usborne 09-13-2021
------------------------------------------------------------------------------------
length     expanded size    cdr  WAVE problems  fmt   ratio  filename
     1:01.70       10925084 B   ---   --   ---xx   flac  0.6413  gd83-10-14s1t01.flac
     6:03.26       64094396 B   ---   --   ---xx   flac  0.7107  gd83-10-14s1t02.flac
     4:38.39       49130972 B   ---   --   ---xx   flac  0.6970  gd83-10-14s1t03.flac
     9:54.14      104814572 B   ---   --   ---xx   flac  0.6772  gd83-10-14s1t04.flac
     2:48.57       29769308 B   ---   --   ---xx   flac  0.7032  gd83-10-14s1t05.flac
     7:18.17       77303228 B   ---   --   ---xx   flac  0.6791  gd83-10-14s1t06.flac
     8:49.15       93350924 B   ---   --   ---xx   flac  0.6731  gd83-10-14s1t07.flac
     9:22.47       99247388 B   ---   --   ---xx   flac  0.6690  gd83-10-14s1t08.flac
     8:47.45       93068684 B   ---   --   ---xx   flac  0.6735  gd83-10-14s1t09.flac
     5:53.57       62403308 B   ---   --   ---xx   flac  0.7094  gd83-10-14s1t10.flac
     5:58.33       63228860 B   ---   --   ---xx   flac  0.7075  gd83-10-14s1t11.flac
     0:45.16        7975676 B   ---   --   ---xx   flac  0.5881  gd83-10-14s2t01.flac
    14:42.36      155669516 B   ---   --   ---xx   flac  0.6828  gd83-10-14s2t02.flac
    15:47.18      167093180 B   ---   --   ---xx   flac  0.6833  gd83-10-14s2t03.flac
    13:11.10      139555964 B   ---   --   ---xx   flac  0.6735  gd83-10-14s2t04.flac
    17:50.45      188853884 B   ---   --   ---xx   flac  0.6888  gd83-10-14s2t05.flac
     5:30.39       58303772 B   ---   --   ---xx   flac  0.6147  gd83-10-14s2t06.flac
     5:39.69       59961932 B   ---   --   ---xx   flac  0.5598  gd83-10-14s2t07.flac
     3:43.48       39450140 B   ---   --   ---xx   flac  0.5591  gd83-10-14s2t08.flac
    10:15.64      108636572 B   ---   --   ---xx   flac  0.6454  gd83-10-14s2t09.flac
     9:08.29       96735452 B   ---   --   ---xx   flac  0.6327  gd83-10-14s2t10.flac
     9:51.05      104264204 B   ---   --   ---xx   flac  0.6941  gd83-10-14s2t11.flac
     5:24.42       57252428 B   ---   --   ---xx   flac  0.6879  gd83-10-14s2t12.flac
   182:27.16     1931089444 B                            0.6711  (23 files)



More information about the bittorrent mailing list