[bittorrent] Grateful Dead 1973-02-09 Roscoe Maples Pavillion at Stanford University, Palo Alto, CA (Remastered SBD)

Automated Mailer noreply-bt.e at etree.org
Mon Sep 13 14:56:43 UTC 2021


Band:           Grateful Dead
Torrent Name:   Grateful Dead 1973-02-09 Roscoe Maples Pavillion at Stanford University, Palo Alto, CA (Remastered SBD)
Uploaded by:    dfries
DB Link:        
Details:        http://bt.etree.org/details.php?id=613844

Contact the seeder at http://db.etree.org/dfries

If the link to this show does not work, it was probably removed for
being non-trade-friendly.

Description / text file:
-------------------------
Grateful Dead
Roscoe Maples Pavillion at Stanford University, Palo Alto, CA
February 9, 1973

Track list:

Set 1
01 Promised Land
02 Row Jimmy
03 Black Throated Wind
04 Deal
05 Me And My Uncle
06 Sugaree
07 Looks Like Rain
08 Loose Lucy
09 Mexicali Blues
10 Brown Eyed Women
11 El Paso
12 Here Comes Sunshine
13 Playing in the Band

Set 2
14 China Cat Sunflower
15 I Know You Rider
16 Jack Straw
17 They Love Each Other
18 Truckin'
19 Eyes of the World
20 China Doll
21 Big River
22 Ramble on Rose
23 Box Of Rain
24 U.S. Blues
25 Sugar Magnolia
26 Uncle John's Band
27 Around and Around
(Encore)
28 Casey Jones















Grateful Dead - February 9, 1973
Roscoe Maples Pavilion (Stanford University) - Palo Alto, CA

Recording Info:
SBD > Reel Master (7.5ips 1/2trk) > Reel/1 (7.5ips/Dolby B) > DAT/0 (44.1k)

Transfer Info:
DAT/0 (Tascam DA-40) > Tascam DA-3000 > Adobe Audition CC 2015 > Samplitude Pro X5 Suite > FLAC
(3 Discs Audio / 1 DVD FLAC)

All Transfers and Mastering by Charlie Miller
charliemiller87 at earthlink.net
June 19, 2020

Notes:
-- This source is about 10 minutes longer than other sources
-- Thanks to Joe B. Jones for the pitch correction settings

Set 1:
01 - Promised Land
02 - Row Jimmy
03 - Black Throated Wind
04 - Deal
05 - Me And My Uncle
06 - Sugaree
07 - Looks Like Rain
08 - Loose Lucy
09 - Beer Barrel Polka
10 - Mexicali Blues
11 - Brown Eyed Women
12 - El Paso
13 - Here Comes Sunshine
14 - Playing In The Band

Set 2:
15 - Introduction By Wavy Gravy
16 - China Cat Sunflower >
17 - I Know You Rider
18 - Jack Straw
19 - They Love Each Other
20 - Truckin' >
21 - Eyes Of The World >
22 - China Doll
23 - Big River
24 - Ramble On Rose
25 - Box Of Rain
26 - Wave That Flag
27 - Sugar Magnolia
28 - Uncle John's Band
29 - Around And Around

Encore:
30 - Casey Jones


SHNTOOL OUTPUT:
    length     expanded size    cdr  WAVE problems  fmt   ratio  filename
     4:05.06       43232156 B   ---   --   ---xx   flac  0.5184  01 Promised Land.flac
     7:39.43       81068780 B   ---   --   ---xx   flac  0.5157  02 Row Jimmy.flac
     6:57.32       73634108 B   ---   --   ---xx   flac  0.5000  03 Black Throated Wind.flac
     4:42.33       49822460 B   ---   --   ---xx   flac  0.5363  04 Deal.flac
     4:15.18       45024380 B   ---   --   ---xx   flac  0.5028  05 Me And My Uncle.flac
     7:40.64       81294572 B   ---   --   ---xx   flac  0.5104  06 Sugaree.flac
     6:47.68       71954780 B   ---   --   ---xx   flac  0.4871  07 Looks Like Rain.flac
     6:36.23       69908540 B   ---   --   ---xx   flac  0.5478  08 Loose Lucy.flac
     1:06.51       11762396 B   ---   --   ---xx   flac  0.4966  09 Beer Barrel Polka.flac
     4:29.51       47571596 B   ---   --   ---xx   flac  0.5177  10 Mexicali Blues.flac
     6:04.58       64346060 B   ---   --   ---xx   flac  0.5198  11 Brown Eyed Women.flac
     5:29.55       58165004 B   ---   --   ---xx   flac  0.5120  12 El Paso.flac
    10:47.71      114297836 B   ---   --   ---xx   flac  0.5457  13 Here Comes Sunshine.flac
    18:54.54      200164652 B   ---   --   ---xx   flac  0.5453  14 Playing In The Band.flac
     2:14.44       23741132 B   ---   --   ---xx   flac  0.4387  15 Introduction By Wavy Gravy.flac
     4:45.00       50274044 B   ---   --   ---xx   flac  0.5723  16 China Cat Sunflower.flac
     6:32.27       69212348 B   ---   --   ---xx   flac  0.5640  17 I Know You Rider.flac
     7:15.72       76903388 B   ---   --   ---xx   flac  0.4964  18 Jack Straw.flac
     4:44.02       50102348 B   ---   --   ---xx   flac  0.5446  19 They Love Each Other.flac
     7:51.44       83187932 B   ---   --   ---xx   flac  0.5730  20 Truckin'.flac
    19:00.61      201239516 B   ---   --   ---xx   flac  0.5595  21 Eyes Of The World.flac
     6:09.45       65197484 B   ---   --   ---xx   flac  0.4953  22 China Doll.flac
     4:54.15       51896924 B   ---   --   ---xx   flac  0.5743  23 Big River.flac
     6:27.71       68433836 B   ---   --   ---xx   flac  0.5474  24 Ramble On Rose.flac
     5:16.40       55836524 B   ---   --   ---xx   flac  0.5468  25 Box Of Rain.flac
     6:31.12       69000668 B   ---   --   ---xx   flac  0.5592  26 Wave That Flag.flac
     9:26.11       99868316 B   ---   --   ---xx   flac  0.5650  27 Sugar Magnolia.flac
     7:45.40       82120124 B   ---   --   ---xx   flac  0.5268  28 Uncle John's Band.flac
     5:12.28       55102700 B   ---   --   ---xx   flac  0.5564  29 Around And Around.flac
     6:50.04       72333452 B   ---   --   ---xx   flac  0.5287  30 Casey Jones.flac
   206:36.18     2186698056 B                            0.5358  (30 files)




More information about the bittorrent mailing list