[bittorrent] Chip Jones Solo Acoustic Big Oak Tavern Roswell, Georgia 8/28/2021 (Z-Man Schoeps CCM4V'S FOB)

Automated Mailer noreply-bt.e at etree.org
Mon Sep 13 04:27:08 UTC 2021


Band:           Other
Torrent Name:   Chip Jones Solo Acoustic Big Oak Tavern Roswell, Georgia 8/28/2021 (Z-Man Schoeps CCM4V'S FOB)
Uploaded by:    zmanatl
DB Link:        
Details:        http://bt.etree.org/details.php?id=613840

Contact the seeder at http://db.etree.org/zmanatl

If the link to this show does not work, it was probably removed for
being non-trade-friendly.

Description / text file:
-------------------------
Chip Jones Solo Acoustic
Big Oak Tavern
Roswell, Georgia
8/28/2021 

Source: Schoeps CCM4V'S>Lunatec V2>Sound Devices 722 (24/44.1)
FOB/DFC/KFC/ZFC/AARP Stage Lip, 5 1/2' High
DSP: Sound Devices 722>Sound Forge 10.0>CD Wave>flac(16)
ID3 Tagged In Foobar 2000
Recorded By: Z-Man
Seeded By: Z-Man
A Team Dirty South Recording

Disc I 

01 Opening Jam/Greeting By Chip
02 If It akes A Lifetime
03 Day After Day 
04 In Love With A Stranger
05 Home At Last
06 Life By The Drop
07 Fearless
08 If I Could
09 Just Breathe
10 Miss Ohio
11 Luckiest Man
12 Ophelia
13 Slip Slidin' Away
14 Speed Trap Town
15 That's The Way
16 Willin'
17 You Never Give Me Your Money

chip2021-08-28d01t01.flac:93e4b478011f6b32aa0d3d03477b2958
chip2021-08-28d01t02.flac:ce6a3b8f144b5c97027b98e45c0926e5
chip2021-08-28d01t03.flac:0cfc99b39336022cd5fb7810fc28aa77
chip2021-08-28d01t04.flac:cd389dbc320b42dba58022f2f7a81fc5
chip2021-08-28d01t05.flac:cf66062f2229733de5c7f4c4825bfe0a
chip2021-08-28d01t06.flac:4d3c39159bb3b2a7e58c1e6a71d8266a
chip2021-08-28d01t07.flac:2c8f83c95c0d9dd98edc26ab6fb32242
chip2021-08-28d01t08.flac:c587b2c9d32e973fff9e50adfadb40d0
chip2021-08-28d01t09.flac:495e873304b8e5c049b652da8c6e760d
chip2021-08-28d01t10.flac:fb794e8cd68731a8b538529bb3eabbf1
chip2021-08-28d01t11.flac:53e5dae04ce59c008cee1ed1b11a3baf
chip2021-08-28d01t12.flac:274f836c52b90aab0170e347cdce2c85
chip2021-08-28d01t13.flac:e7b346115b079b02da623215699f7648
chip2021-08-28d01t14.flac:5e58c1675adf129f40c6b7f861168993
chip2021-08-28d01t15.flac:298dcca3495761fa61127ec6a85a76c2
chip2021-08-28d01t16.flac:d0e58979b49f32e03ea7457b7205b09a
chip2021-08-28d01t17.flac:de07475e9ed366dc249aef87b13d64a9

   length     expanded size    cdr  WAVE problems  fmt   ratio  filename
     2:16.04       23999852 B   ---   --   ---xx   flac  0.3460  chip2021-08-28d01t01.flac
     4:06.46       43502636 B   ---   --   ---xx   flac  0.4601  chip2021-08-28d01t02.flac
     4:31.23       47858540 B   ---   --   ---xx   flac  0.4456  chip2021-08-28d01t03.flac
     3:24.08       36004460 B   ---   --   ---xx   flac  0.4563  chip2021-08-28d01t04.flac
     6:47.72       71964188 B   ---   --   ---xx   flac  0.4774  chip2021-08-28d01t05.flac
     4:43.19       49965932 B   ---   --   ---xx   flac  0.4433  chip2021-08-28d01t06.flac
     7:19.40       77533724 B   ---   --   ---xx   flac  0.4435  chip2021-08-28d01t07.flac
     5:11.69       55022732 B   ---   --   ---xx   flac  0.4432  chip2021-08-28d01t08.flac
     3:53.72       41270588 B   ---   --   ---xx   flac  0.4371  chip2021-08-28d01t09.flac
     3:43.17       39377228 B   ---   --   ---xx   flac  0.4086  chip2021-08-28d01t10.flac
     3:59.28       42225500 B   ---   --   ---xx   flac  0.4822  chip2021-08-28d01t11.flac
     3:26.60       36479564 B   ---   --   ---xx   flac  0.4746  chip2021-08-28d01t12.flac
     5:46.26       61095596 B   ---   --   ---xx   flac  0.4514  chip2021-08-28d01t13.flac
     4:37.33       48940460 B   ---   --   ---xx   flac  0.4260  chip2021-08-28d01t14.flac
     6:53.19       72897932 B   ---   --   ---xx   flac  0.4962  chip2021-08-28d01t15.flac
     4:15.28       45047900 B   ---   --   ---xx   flac  0.4486  chip2021-08-28d01t16.flac
     4:18.11       45537116 B   ---   --   ---xx   flac  0.5030  chip2021-08-28d01t17.flac
    79:14.50      838723948 B                            0.4541  (17 files)





More information about the bittorrent mailing list