[bittorrent] Infamous Stringdusters Candler Park Music Festival Candler Park Atlanta, Georgia 9/11/2021 (Z-Man Schoeps CCM4V'S FOB)

Automated Mailer noreply-bt.e at etree.org
Sun Sep 12 21:24:22 UTC 2021


Band:           Infamous Stringdusters
Torrent Name:   Infamous Stringdusters Candler Park Music Festival Candler Park Atlanta, Georgia 9/11/2021 (Z-Man Schoeps CCM4V'S FOB) 
Uploaded by:    zmanatl
DB Link:        
Details:        http://bt.etree.org/details.php?id=613838

Contact the seeder at http://db.etree.org/zmanatl

If the link to this show does not work, it was probably removed for
being non-trade-friendly.

Description / text file:
-------------------------
Infamous Stringdusters
Candler Park Music Festival
Candler Park
Atlanta, Georgia
9/11/2021 

Source: Schoeps CCM4V'S>Lunatec V2>Sound Devices 722 (24/44.1)
FOB/DFC/KFC/ZFC/AARP 69' From Stage, 8' High
DSP: Sound Devices 722>Sound Forge 10.0>CD Wave>flac(16)
ID3 Tagged In Foobar 2000
Recorded By: Z-Man
Seeded By: Z-Man
A Team Dirty South Recording

Disc I 

01 Introduction
02 Rise Sun
03 Free >
04 Cluck
05 17 Cents >
06 Well Well 
07 Thunder

Disc II 

01 I'll Just Stay Around >
02 Another One Like You > 
03 Long Time Goin' >
04 Yer Gonna Love > 
05 Black Rock
06 Wake The Dead
07 I've Lived A Lot
08 Planets >
09 Ruben And Cherise Jam >
10 Scarlet Begonias 
Encore:
11 Banter
12 Uncle Pen
13 Outro

Andy Falco - Guitar And Vocals
Travis Book - Bass And Vocals
Jeremy Garrett - Fiddle And Vocals
Andy Hall - Dobro And Vocals
Chris Pandolfi - Banjo And Vocals

Infamous2021-09-11d01t01.flac:92ef6d742fd65d20ec636bcf152dc78e
Infamous2021-09-11d01t02.flac:fa5147252e09e855292e565856c9741d
Infamous2021-09-11d01t03.flac:ad15dafa5f28475246a7a6c4a5fc9a58
Infamous2021-09-11d01t04.flac:57766e7cdee4d79621e9b34c3de6e6f2
Infamous2021-09-11d01t05.flac:720ccbc70910b39245f4fe3807be7fcc
Infamous2021-09-11d01t06.flac:7523514dec5044beec3dbd4da166c2c6
Infamous2021-09-11d01t07.flac:f548009be783fa220ed888f1aa4e649f
Infamous2021-09-11d02t01.flac:54361931075204599492f6abdaf81b79
Infamous2021-09-11d02t02.flac:d9d1748c37d657e815c4a6ea63a07a57
Infamous2021-09-11d02t03.flac:7d5a5614384b08737dd5c662068ad867
Infamous2021-09-11d02t04.flac:3e210992018e3ca191d1b8f312cbfeb6
Infamous2021-09-11d02t05.flac:8d6a63164c333405e684bee69b66ae9e
Infamous2021-09-11d02t06.flac:2e30c870e6fe271783e0dbf06d029507
Infamous2021-09-11d02t07.flac:705e51512e60629737bf781c417fa0ba
Infamous2021-09-11d02t08.flac:13f8dde742e30078323d49bbdd3d8c7d
Infamous2021-09-11d02t09.flac:baeb216732c97accd4b17481326d2576
Infamous2021-09-11d02t10.flac:7a1539f3a2f8c418bc0684a14660e869
Infamous2021-09-11d02t11.flac:c21dbb6f7cc88e06bf14960b684a8c51
Infamous2021-09-11d02t12.flac:bb99d04bab5570a8fb3e4cd1d0cebae6
Infamous2021-09-11d02t13.flac:1c30940768fa4e3bef5a245606c44ce2

  length     expanded size    cdr  WAVE problems  fmt   ratio  filename
     1:26.66       15325676 B   ---   --   ---xx   flac  0.4471  Infamous2021-09-11d01t01.flac
     4:05.13       43248620 B   ---   --   ---xx   flac  0.4352  Infamous2021-09-11d01t02.flac
     3:29.50       36985244 B   ---   --   ---xx   flac  0.4498  Infamous2021-09-11d01t03.flac
     7:26.67       78832028 B   ---   --   ---xx   flac  0.4507  Infamous2021-09-11d01t04.flac
     6:59.57       74045708 B   ---   --   ---xx   flac  0.4417  Infamous2021-09-11d01t05.flac
    10:29.40      111049724 B   ---   --   ---xx   flac  0.4404  Infamous2021-09-11d01t06.flac
     3:17.41       34847276 B   ---   --   ---xx   flac  0.4295  Infamous2021-09-11d01t07.flac
     4:32.60       48121964 B   ---   --   ---xx   flac  0.4546  Infamous2021-09-11d02t01.flac
     7:49.22       82783388 B   ---   --   ---xx   flac  0.4419  Infamous2021-09-11d02t02.flac
     6:21.16       67246076 B   ---   --   ---xx   flac  0.4446  Infamous2021-09-11d02t03.flac
     5:11.48       54973340 B   ---   --   ---xx   flac  0.4530  Infamous2021-09-11d02t04.flac
     9:56.42      105233228 B   ---   --   ---xx   flac  0.4517  Infamous2021-09-11d02t05.flac
     7:48.21       82604636 B   ---   --   ---xx   flac  0.4444  Infamous2021-09-11d02t06.flac
     3:50.28       40637900 B   ---   --   ---xx   flac  0.4066  Infamous2021-09-11d02t07.flac
     4:30.12       47656268 B   ---   --   ---xx   flac  0.4672  Infamous2021-09-11d02t08.flac
     4:43.01       49923596 B   ---   --   ---xx   flac  0.4419  Infamous2021-09-11d02t09.flac
     9:07.32       96566108 B   ---   --   ---xx   flac  0.4509  Infamous2021-09-11d02t10.flac
     1:16.33       13484060 B   ---   --   ---xx   flac  0.3489  Infamous2021-09-11d02t11.flac
     2:38.17       27911228 B   ---   --   ---xx   flac  0.4578  Infamous2021-09-11d02t12.flac
     1:18.07       13775708 B   ---   --   ---xx   flac  0.3868  Infamous2021-09-11d02t13.flac
   106:18.73     1125251776 B                            0.4436  (20 files)




More information about the bittorrent mailing list