[bittorrent] Galactic Candler Park Music Festival Atlanta, Georgia 9/10/2021 (Z-Man Schoeps CCM4V'S FOB)

Automated Mailer noreply-bt.e at etree.org
Sun Sep 12 16:12:55 UTC 2021


Band:           Galactic
Torrent Name:   Galactic Candler Park Music Festival Atlanta, Georgia 9/10/2021  (Z-Man Schoeps CCM4V'S FOB)
Uploaded by:    zmanatl
DB Link:        
Details:        http://bt.etree.org/details.php?id=613833

Contact the seeder at http://db.etree.org/zmanatl

If the link to this show does not work, it was probably removed for
being non-trade-friendly.

Description / text file:
-------------------------
Galactic
Candler Park Music Festival
Atlanta, Georgia
9/10/2021 

Source: Schoeps CCM4V'S>Lunatec V2>Sound Devices 722 (24/44.1)
FOB/DFC/KFC/ZFC/AARP 69' From Stage, 8' High
DSP: Sound Devices 722>Sound Forge 10.0>CD Wave>flac(16)
ID3 Tagged In Foobar 2000
Recorded By: Z-Man
Seeded By: Z-Man
A Team Dirty South Recording

Disc I 

01 Introduction
02 Clap Your Hands
03 Higher And Higher >
04 Heart Of Steel
05 Fabuloso 
06 Something's Wrong With This Picture
07 Going Straight Crazy
08 Right On 
09 Church

Disc II 

01 You Don't Know 
02 Yes We Can
03 Big Whiskers >
04 Two Clowns 
05 Into The Deep 
06 Dolla Dive >
07 Getcha Some 
Encore:
08 Baker's Dozen 
09 Qualified 
10 Band Introductions 
11 Outro

Rob Mercurio - Bass
Jeffrey Raines - Guitar
Rich Vogel - Keyboards
Ben Ellman - Saxophone
Eric - Trumpet
Stanton Moore - Drumselly"  Joseph - Vocals

galactic2021-09-10d01t01.flac:89035d73c110f59ca5c5b88beedb5d35
galactic2021-09-10d01t02.flac:069728be00a8b5db8d2cc0127cc8bb9e
galactic2021-09-10d01t03.flac:847db88a62459f484b4d587b74cf0167
galactic2021-09-10d01t04.flac:ef2cf67b53d64fa5ea83851302c64698
galactic2021-09-10d01t05.flac:b60bf01f406675b0d8975d6401dd638a
galactic2021-09-10d01t06.flac:92b1113dfe7a9084fdabe8de8f076569
galactic2021-09-10d01t07.flac:0607a5eb8b099a83d2cdb549278cb9f0
galactic2021-09-10d01t08.flac:9b17078e8b1060b903569c42287f754e
galactic2021-09-10d01t09.flac:fd56481b2d63cc0c5b219ab80d17eada
galactic2021-09-10d02t01.flac:844ff378d504519221e0c76b807071ba
galactic2021-09-10d02t02.flac:c8fc414ff6e4eae9b8bf93e47f46c5fe
galactic2021-09-10d02t03.flac:5a5e675aec77ce2c02f908048dbd7b4a
galactic2021-09-10d02t04.flac:9a307647a88728353440c4955443e2d3
galactic2021-09-10d02t05.flac:5fd0fef4be02e7461e4a1c31e62d692e
galactic2021-09-10d02t06.flac:4951511bf1197be8e51eb94a1b6969ba
galactic2021-09-10d02t07.flac:ca1335670ac5795f09ae977d1ada4a5a
galactic2021-09-10d02t08.flac:93390c3d6c4e37ade4ff3f0b693631a8
galactic2021-09-10d02t09.flac:dfe31eeb8460ba21b4b4c57e20847a12
galactic2021-09-10d02t10.flac:2f1611ebdae174c3d334833d9b7eb055
galactic2021-09-10d02t11.flac:951e14b281c6608a7ebfd44d15f67ab9

  length     expanded size    cdr  WAVE problems  fmt   ratio  filename
     0:30.05        5303804 B   ---   --   ---xx   flac  0.3688  galactic2021-09-10d01t01.flac
     4:16.10       45181964 B   ---   --   ---xx   flac  0.4878  galactic2021-09-10d01t02.flac
     5:05.41       53898476 B   ---   --   ---xx   flac  0.4918  galactic2021-09-10d01t03.flac
     5:45.32       60933308 B   ---   --   ---xx   flac  0.4720  galactic2021-09-10d01t04.flac
     6:01.52       63802748 B   ---   --   ---xx   flac  0.5014  galactic2021-09-10d01t05.flac
     6:47.65       71947724 B   ---   --   ---xx   flac  0.4487  galactic2021-09-10d01t06.flac
     4:38.58       49175660 B   ---   --   ---xx   flac  0.4548  galactic2021-09-10d01t07.flac
     4:05.52       43340348 B   ---   --   ---xx   flac  0.4687  galactic2021-09-10d01t08.flac
     5:59.67       63485228 B   ---   --   ---xx   flac  0.4477  galactic2021-09-10d01t09.flac
     4:00.46       42444236 B   ---   --   ---xx   flac  0.4870  galactic2021-09-10d02t01.flac
     5:18.05       56107004 B   ---   --   ---xx   flac  0.4366  galactic2021-09-10d02t02.flac
     5:41.14       60185372 B   ---   --   ---xx   flac  0.4539  galactic2021-09-10d02t03.flac
     6:58.03       73742300 B   ---   --   ---xx   flac  0.4304  galactic2021-09-10d02t04.flac
     4:30.26       47689196 B   ---   --   ---xx   flac  0.4243  galactic2021-09-10d02t05.flac
     4:24.03       46576700 B   ---   --   ---xx   flac  0.4666  galactic2021-09-10d02t06.flac
     2:53.62       30663068 B   ---   --   ---xx   flac  0.4274  galactic2021-09-10d02t07.flac
     7:20.63       77764220 B   ---   --   ---xx   flac  0.4663  galactic2021-09-10d02t08.flac
     8:10.33       86513660 B   ---   --   ---xx   flac  0.4546  galactic2021-09-10d02t09.flac
     0:53.18        9391580 B   ---   --   ---xx   flac  0.3922  galactic2021-09-10d02t10.flac
     1:07.74       11992892 B   ---   --   ---xx   flac  0.3666  galactic2021-09-10d02t11.flac
    94:29.54     1000139488 B                            0.4575  (20 files)




More information about the bittorrent mailing list