[bittorrent] Grateful Dead 1977-05-18 The Fabulous Fox Theater, Atlanta, GA (Remastered SBD)

Automated Mailer noreply-bt.e at etree.org
Sun Sep 12 03:39:46 UTC 2021


Band:           Grateful Dead
Torrent Name:   Grateful Dead 1977-05-18 The Fabulous Fox Theater, Atlanta, GA (Remastered SBD)
Uploaded by:    dfries
DB Link:        
Details:        http://bt.etree.org/details.php?id=613831

Contact the seeder at http://db.etree.org/dfries

If the link to this show does not work, it was probably removed for
being non-trade-friendly.

Description / text file:
-------------------------
Grateful Dead
The Fox Theater, Atlanta, GA
May 18th. 1977

Track list:

Set 1
01 Deal
02 Cassidy
03 Jack a Roe
04 Mexicali Blues
05 Friend of the Devil
06 New Minglewood Blues
07 It Must Have Been The Roses
08 Lazy Lightning / Supplication
09 High Time
10 The Music Never Stopped

Set 2
11 Jack Staw
12 Ship of Fools
13 Estimated Prophet
14 Eyes of the World
15 Drums
16 The Other One
17 Stella Blue
18 Around and Around
(Encore)
19 Brokedown Palace

Band:

Jerry Garcia - guitar and vocals
Bob Weir - guitar and vocals
Phil Lesh - bass guitar and vocals
Mickey Hart - drums
Bill Kreutzman - drums
Keith Godchaux - keyboards and vocals
Donna Godchaux - vocals

Run time: 2 h 56 min 45 sec
Format: FLAC 16 bit/44.1 kHz and AAC

House audio mixed and recorded by Betty Cantor Jackson (May 18, 1977): Reel (7.5ips / 1/2").
Transfer: Reel > DAT / Sony PCM-R500 / Samplitude (Charlie Miller).
Remastered by D. Fries (September 2021).


*** This is a remaster of "79012" shared by Charlie Miller.  The previous text is here: ***


"Grateful Dead - May 18, 1977
Fox Theatre - Atlanta, GA

Recording Info:
SBD -> Master Reel (7 inch reels @ 7.5ips 1/2trk) -> Dat (44.1k)

Transfer Info:
Dat (Sony R500) -> Samplitude v7.02 Professional -> FLAC
(3 Discs Audio / 2 Discs FLAC)

All Transfers and Mastering By Charlie Miller
charliemiller87 at earthlink.net
October 12. 2006

Notes:
-- All disc changes are seamless
-- I can confirm 100% that this comes from the vault master reel
-- Like other copies, this has the radio bleeding through
-- Bleed through only heard during tuning between some songs
-- Reel flip in The Other One fixed with crossfade

Set 1:
d1t01 - Deal
d1t02 - Cassidy
d1t03 - Jack-A-Roe
d1t04 - Mexicali Blues
d1t05 - Friend Of The Devil
d1t06 - New Minglewood Blues
d1t07 - It Must Have Been The Roses
d1t08 - Lazy Lightnin' ->
d1t09 - Supplication
d2t01 - High Time
d2t02 - The Music Never Stopped

Set 2:
d2t03 - Jack Straw
d2t04 - Ship Of Fools
d3t01 - Estimated Prophet ->
d3t02 - Eyes Of The World ->
d3t03 - Drums ->
d3t04 - The Other One ->
d3t05 - Stella Blue ->
d3t06 - Around And Around

Encore:
d3t07 - Brokedown Palace


SHNTOOL OUTPUT:
    length     expanded size   cdr  WAVE problems filename
     7:27.14       78883772    ---   --   -----   gd77-05-18d1t01.wav
     6:34.35       69583964    ---   --   -----   gd77-05-18d1t02.wav
     8:03.05       85213004    ---   --   -----   gd77-05-18d1t03.wav
     4:36.44       48789932    ---   --   -----   gd77-05-18d1t04.wav
    10:40.10      112919564    ---   --   -----   gd77-05-18d1t05.wav
     6:24.03       67744700    ---   --   -----   gd77-05-18d1t06.wav
    10:20.45      109473884    ---   --   -----   gd77-05-18d1t07.wav
     3:34.16       37787276    ---   --   -----   gd77-05-18d1t08.wav
     8:09.09       86280812    ---   --   -----   gd77-05-18d1t09.wav
    11:44.49      124300892    ---   --   -----   gd77-05-18d2t01.wav
     8:19.64       88174172    ---   --   -----   gd77-05-18d2t02.wav
     7:02.00       74440844    ---   --   -----   gd77-05-18d2t03.wav
    11:16.35      119328764    ---   --   -----   gd77-05-18d2t04.wav
    10:23.69      110059532    ---   --   -----   gd77-05-18d3t01.wav
    12:53.06      136371356    ---   --   -----   gd77-05-18d3t02.wav
     4:36.46       48794636    ---   --   -----   gd77-05-18d3t03.wav
    12:24.59      131380412    ---   --   -----   gd77-05-18d3t04.wav
    15:45.13      166728620    ---   --   -----   gd77-05-18d3t05.wav
     9:58.03      105494300    ---   --   -----   gd77-05-18d3t06.wav
     6:38.03       70214300    ---   --   -----   gd77-05-18d3t07.wav
   176:52.03     1871964736 B                     (totals for 20 files)"






More information about the bittorrent mailing list