[bittorrent] Grateful Dead 1968-11-01 Silver Dollar Fair Ground, Chico, CA (Remastered SBD)

Automated Mailer noreply-bt.e at etree.org
Sat Sep 11 11:56:20 UTC 2021


Band:           Grateful Dead
Torrent Name:   Grateful Dead 1968-11-01 Silver Dollar Fair Ground, Chico, CA (Remastered SBD)
Uploaded by:    dfries
DB Link:        
Details:        http://bt.etree.org/details.php?id=613822

Contact the seeder at http://db.etree.org/dfries

If the link to this show does not work, it was probably removed for
being non-trade-friendly.

Description / text file:
-------------------------
Grateful Dead
Silver Dollar Fair Ground, Chico, CA
November 1, 1968

Track list:

Final set
01 Dark Star
02 The Other One
03 New Potato Caboose
04 Caution
05 And We Bid You Goodnight

Run time: 42 min 25 sec
Format: FLAC 16 bit/44.1 kHz and AAC

House audio recorded (November 1, 1968): 8 track reel (10"/15ips)
Transferred by Rob Eaton: Reel > Panasonic SV-3800 (2 generations) / Avid MBox Pro / Pro Tools 12  (16 bit/44.1kHz)
Remastered by D. Fries (September 2021).


*** This is a remaster of the files Charlie Miller shared November 28, 2020.  Charlie mentions in the notes (pasted below) he remastered Rob Eaton's files, summing the left and right channels of the first 2 min 30 sec of the first track, "Dark Star", and the last track, "And We Bid You Goodnight", to mono by pasting the left channel over the right.  Interesting a self-proclaimed "professional audio mastering engineer" doesn't know where the pan knob is at.  Here is the previous text: ***


"Grateful Dead - November 1, 1968
Silver Dollar Fair - Chico, CA

Recording Info:
SBD > (8-track) Master Reel (10in 15ips) > DAT (Panasonic SV-3700) > DAT (Panasonic SV-3700)

Transfer Info:
DAT (Panasonic SV-3800) > Avid MBox Pro > Pro Tools 12 > WAV (16-bit/44.1k)

Additional Mastering:
WAV > Samplitude Pro X5 Suite > FLAC
(1 Disc Audio)

Original Transfer and Mastering by Rob Eaton
Additional Mastering by Charlie Miller
charliemiller87 at earthlink.net
November 28, 2020

Notes:
-- Thanks to Rob Eaton and Dick Latvala for this source
-- The first 2:34 of Dark Star was made mono (there was almost nothing in the right channel)
-- And We Bid You Good Night was made mono (there was almost nothing in the right channel)
-- I pasted the left channel over the right channel so it wouldn't sound weird

Set 2:
01 - Dark Star >
02 - That's It For The Other One >
03 - New Potato Caboose//
04 - //Caution (Do Not Stop On Tracks) > Feedback >
05 - And We Bid You Good Night


SHNTOOL OUTPUT:
    length     expanded size    cdr  WAVE problems  fmt   ratio  filename
    12:22.50      131006444 B   ---   --   ---xx   flac  0.4689  01 Dark Star.flac
    19:45.69      209196332 B   ---   --   ---xx   flac  0.5369  02 That's It For The Other One.flac
     0:36.00        6350444 B   ---   --   ---xx   flac  0.5237  03 New Potato Caboose.flac
     8:30.39       90055772 B   ---   --   ---xx   flac  0.4916  04 Caution (Do Not Stop On Tracks).flac
     1:12.38       12790220 B   ---   --   ---xx   flac  0.3100  05 And We Bid You Good Night.flac
    42:27.46      449399212 B                            0.5014  (5 files)"




More information about the bittorrent mailing list