[bittorrent] Gov't Mule 2021-09-09 Leader Bank Pavilion Boston, MA fob Schoeps mk41v>cmc1k>Sonosax SX-R4+ **1644**

Automated Mailer noreply-bt.e at etree.org
Fri Sep 10 07:14:32 UTC 2021


Band:           Govt Mule
Torrent Name:   Gov't Mule 2021-09-09 Leader Bank Pavilion Boston, MA fob Schoeps mk41v>cmc1k>Sonosax SX-R4+ **1644**
Uploaded by:    andyjah
DB Link:        
Details:        http://bt.etree.org/details.php?id=613804

Contact the seeder at http://db.etree.org/andyjah

If the link to this show does not work, it was probably removed for
being non-trade-friendly.

Description / text file:
-------------------------
Gov’t Mule
2021-09-09
Leader Bank Pavilion
Boston, MA

mics were fob dfc 6’ 16th row (row P)

Schoeps mk41v>cmc1k>Sonosax SX-R4+
(~70degrees @ 21cm PAS) 

Sonosax SX-R4+>sd-xc card>Imac>Audacity(tracking,normalize,fades)>Sony Soundforge Convrt(resample(izotope,highest settings)/dither(mbit+/ultra, high dither)to 16 bit/44.1k)>XAct(FLAC 8,ffp,fix sbe)

Recorded,transferred and seeded by Andy Murray

Set 1

01 Rocking Horse
02 Which Way Do We Run?
03 Pressure Under Fire
04 Larger Than Life
05 Temporary Saint
06 Stone Cold Rage
07 Trane > 
08 Rumble > Sex Machine
09 Feel Like Breaking Up Somebody’s Home

Set 2

10 Brown Sugar
11 Can’t You Hear Me Knocking
12 Beautifully Broken
13 Kind of Bird
14 King’s Highway > KH Jam
15 Blind Man In The Dark
16 Encore break
17 Child Of The Earth

;flac fingerprints generated by xACT 2.38 on 2021-09-10 06:53:59 +0000

govtmule2021-09-09.mk41v.sxr4+.1644.s1t01.flac:e02112b7a69e4d286b3ad47d926c7e79
govtmule2021-09-09.mk41v.sxr4+.1644.s1t02.flac:fb45718d75748e30af6b20064e36a6bd
govtmule2021-09-09.mk41v.sxr4+.1644.s1t03.flac:8b922c369a9f526b087b9d21ee77862a
govtmule2021-09-09.mk41v.sxr4+.1644.s1t04.flac:73338188c157780393d02818ea74d22f
govtmule2021-09-09.mk41v.sxr4+.1644.s1t05.flac:5c3f8460d667507db189944bef811196
govtmule2021-09-09.mk41v.sxr4+.1644.s1t06.flac:8d4d1c6692cad30889e41464aae3c307
govtmule2021-09-09.mk41v.sxr4+.1644.s1t07.flac:275eab436680f5f9f61086f2d27b82f6
govtmule2021-09-09.mk41v.sxr4+.1644.s1t08.flac:bc6bfbd414297c68516f211b33ed9b16
govtmule2021-09-09.mk41v.sxr4+.1644.s1t09.flac:ada8e2922e57d2cd62ff2229450ad24c
govtmule2021-09-09.mk41v.sxr4+.1644.s2t01.flac:460815ff522a4642195693ba3e2a4a53
govtmule2021-09-09.mk41v.sxr4+.1644.s2t02.flac:a20c5dd72327e756ecc29a7bf40dae7a
govtmule2021-09-09.mk41v.sxr4+.1644.s2t03.flac:58aa083a0a0d924f852474a7319d7e40
govtmule2021-09-09.mk41v.sxr4+.1644.s2t04.flac:aa4c8b7b2c87527be1d40ea30d342a1f
govtmule2021-09-09.mk41v.sxr4+.1644.s2t05.flac:1353567c543e43f9d136131ea8ace554
govtmule2021-09-09.mk41v.sxr4+.1644.s2t06.flac:85613d6568fa73ec568a68440a0ce98c
govtmule2021-09-09.mk41v.sxr4+.1644.s2t07.flac:d9f41381935be623bd6db65ebc2a39a4
govtmule2021-09-09.mk41v.sxr4+.1644.s2t08.flac:a1ad36e2632e34fb42a917bf00cd22a9

    length     expanded size    cdr  WAVE problems  fmt   ratio  filename
     9:42.40      102758924 B   ---   --   -----    wav  1.0000  govtmule2021-09-09.mk41v.sxr4+.1644.s1t01.wav
     9:22.08       99155660 B   ---   --   -----    wav  1.0000  govtmule2021-09-09.mk41v.sxr4+.1644.s1t02.wav
     5:31.09       58409612 B   ---   --   -----    wav  1.0000  govtmule2021-09-09.mk41v.sxr4+.1644.s1t03.wav
     6:32.51       69268796 B   ---   --   -----    wav  1.0000  govtmule2021-09-09.mk41v.sxr4+.1644.s1t04.wav
     6:05.18       64428380 B   ---   --   -----    wav  1.0000  govtmule2021-09-09.mk41v.sxr4+.1644.s1t05.wav
     6:02.58       63993260 B   ---   --   -----    wav  1.0000  govtmule2021-09-09.mk41v.sxr4+.1644.s1t06.wav
     7:53.69       83599532 B   ---   --   -----    wav  1.0000  govtmule2021-09-09.mk41v.sxr4+.1644.s1t07.wav
     5:02.62       53418668 B   ---   --   -----    wav  1.0000  govtmule2021-09-09.mk41v.sxr4+.1644.s1t08.wav
    12:43.64      134743772 B   ---   --   -----    wav  1.0000  govtmule2021-09-09.mk41v.sxr4+.1644.s1t09.wav
     6:39.01       70385996 B   ---   --   -----    wav  1.0000  govtmule2021-09-09.mk41v.sxr4+.1644.s2t01.wav
     8:32.66       90472076 B   ---   --   -----    wav  1.0000  govtmule2021-09-09.mk41v.sxr4+.1644.s2t02.wav
     6:24.53       67862300 B   ---   --   -----    wav  1.0000  govtmule2021-09-09.mk41v.sxr4+.1644.s2t03.wav
    16:59.06      179765756 B   ---   --   -----    wav  1.0000  govtmule2021-09-09.mk41v.sxr4+.1644.s2t04.wav
    12:00.00      127008044 B   ---   --   -----    wav  1.0000  govtmule2021-09-09.mk41v.sxr4+.1644.s2t05.wav
    10:29.41      111052076 B   ---   --   -----    wav  1.0000  govtmule2021-09-09.mk41v.sxr4+.1644.s2t06.wav
     1:45.24       18578492 B   ---   --   -----    wav  1.0000  govtmule2021-09-09.mk41v.sxr4+.1644.s2t07.wav
     8:35.35       90928364 B   ---   --   -----    wav  1.0000  govtmule2021-09-09.mk41v.sxr4+.1644.s2t08.wav
   140:23.05     1485829708 B                            1.0000  (17 files)





More information about the bittorrent mailing list