[bittorrent] Phish 2021-09-05 Dick's Sporting Park Commerce City, CO Schoeps mk4v>kc5>cmc6>Sonosax SX-R4+ flac16

Automated Mailer noreply-bt.e at etree.org
Thu Sep 9 02:41:47 UTC 2021


Band:           Phish
Torrent Name:   Phish 2021-09-05 Dick's Sporting Park Commerce City, CO Schoeps mk4v>kc5>cmc6>Sonosax SX-R4+ flac16
Uploaded by:    andyjah
DB Link:        
Details:        http://bt.etree.org/details.php?id=613788

Contact the seeder at http://db.etree.org/andyjah

If the link to this show does not work, it was probably removed for
being non-trade-friendly.

Description / text file:
-------------------------
Phish
2021-09-05
Dick's Sporting Goods Park
Commerce City, CO

mics were fob dfc 6’

Schoeps mk4v>kc5>cmc6>Sonosax SX-R4+
(~70degrees @ 21cm PAS) 

Sonosax SX-R4+>sd-xc card>Imac>Audacity(tracking,normalize,fades)>Sony Soundforge Convrt(resample(izotope,highest settings)/dither(mbit+/ultra, high dither)to 16 bit/44.1k)>XAct(FLAC 8,ffp,fix sbe)

Recorded,transferred and seeded by Andy Murray

Set 1

01. The Moma Dance
02. McGrupp & the Watchful Hosemasters
03. Sand>
04. Sigma Oasis>
05. All of These Dreams
06. Reba
07. Bathtub Gin

Set 2

08. Set Your Soul Free>
09. Lonely Trip
10. Simple>
11. Catapult>
12. Meatstick>
13. Ruby Waves>
14. Billy Breathes
15. Most Events Aren’t Planned
16. Harry Hood
17. Encore Break
18. More
19. Say it to Me S.A.N.T.O.S

;flac fingerprints generated by xACT 2.38 on 2021-09-09 01:50:10 +0000

ph2021-09-05.mk4v.sxr4+.1644.s1t01.flac:2b3062a3ce469d89cb8ed48624bb53f4
ph2021-09-05.mk4v.sxr4+.1644.s1t02.flac:a4caa75fa9dadad05847b4e5545ec56c
ph2021-09-05.mk4v.sxr4+.1644.s1t03.flac:e615d94ca91b5c323db36280f5a51352
ph2021-09-05.mk4v.sxr4+.1644.s1t04.flac:8b6b636acf493bc45cd12d7fa1aef598
ph2021-09-05.mk4v.sxr4+.1644.s1t05.flac:356ad20d601df41c2ba42de319edef64
ph2021-09-05.mk4v.sxr4+.1644.s1t06.flac:d631848854c7446ab9a4b14277429917
ph2021-09-05.mk4v.sxr4+.1644.s1t07.flac:6e38a1361cdb10baa013fd2177c61dc0
ph2021-09-05.mk4v.sxr4+.1644.s2t01.flac:de801eae028bd500eee3997e38eedd1e
ph2021-09-05.mk4v.sxr4+.1644.s2t02.flac:1d5c533c88134390f1b018b4f4affc91
ph2021-09-05.mk4v.sxr4+.1644.s2t03.flac:359d368a7571bc7a380eb03f99037d73
ph2021-09-05.mk4v.sxr4+.1644.s2t04.flac:f91a158df679d2f047adf1a609b4c1c0
ph2021-09-05.mk4v.sxr4+.1644.s2t05.flac:cb57445bd623ddf8ad5ee508f9bbd201
ph2021-09-05.mk4v.sxr4+.1644.s2t06.flac:d30ea7f53f1cbd8093368011c8f7db7a
ph2021-09-05.mk4v.sxr4+.1644.s2t07.flac:018dbe969217039536d4a0c02d6208df
ph2021-09-05.mk4v.sxr4+.1644.s2t08.flac:34a721dc1f94d70c9089077b9bb1d8ea
ph2021-09-05.mk4v.sxr4+.1644.s2t09.flac:3a655f149377bc9709cc4d790809510a
ph2021-09-05.mk4v.sxr4+.1644.s2t10.flac:ee595d4d300c8268c4c89871e8f58a5f
ph2021-09-05.mk4v.sxr4+.1644.s2t11.flac:4afd13a61753d29ca50c855267f72695
ph2021-09-05.mk4v.sxr4+.1644.s2t12.flac:8e75cedc40b01af9bac79e8d450a5548

    length     expanded size    cdr  WAVE problems  fmt   ratio  filename
     9:04.34       96041612 B   ---   --   -----    wav  1.0000  ph2021-09-05.mk4v.sxr4+.1644.s1t01.wav
     8:30.27       90027548 B   ---   --   -----    wav  1.0000  ph2021-09-05.mk4v.sxr4+.1644.s1t02.wav
    13:57.63      147795020 B   ---   --   -----    wav  1.0000  ph2021-09-05.mk4v.sxr4+.1644.s1t03.wav
    15:06.07      159834908 B   ---   --   -----    wav  1.0000  ph2021-09-05.mk4v.sxr4+.1644.s1t04.wav
     3:50.13       40602620 B   ---   --   -----    wav  1.0000  ph2021-09-05.mk4v.sxr4+.1644.s1t05.wav
    11:31.39      121984172 B   ---   --   -----    wav  1.0000  ph2021-09-05.mk4v.sxr4+.1644.s1t06.wav
    14:15.44      150925532 B   ---   --   -----    wav  1.0000  ph2021-09-05.mk4v.sxr4+.1644.s1t07.wav
    19:11.18      203078780 B   ---   --   -----    wav  1.0000  ph2021-09-05.mk4v.sxr4+.1644.s2t01.wav
     6:10.29       65336252 B   ---   --   -----    wav  1.0000  ph2021-09-05.mk4v.sxr4+.1644.s2t02.wav
     8:37.20       91245884 B   ---   --   -----    wav  1.0000  ph2021-09-05.mk4v.sxr4+.1644.s2t03.wav
     6:12.01       65623196 B   ---   --   -----    wav  1.0000  ph2021-09-05.mk4v.sxr4+.1644.s2t04.wav
     8:40.00       91728044 B   ---   --   -----    wav  1.0000  ph2021-09-05.mk4v.sxr4+.1644.s2t05.wav
    13:14.03      140068700 B   ---   --   -----    wav  1.0000  ph2021-09-05.mk4v.sxr4+.1644.s2t06.wav
     5:16.47       55852988 B   ---   --   -----    wav  1.0000  ph2021-09-05.mk4v.sxr4+.1644.s2t07.wav
     8:08.40       86177324 B   ---   --   -----    wav  1.0000  ph2021-09-05.mk4v.sxr4+.1644.s2t08.wav
    11:44.31      124258556 B   ---   --   -----    wav  1.0000  ph2021-09-05.mk4v.sxr4+.1644.s2t09.wav
     2:32.24       26869292 B   ---   --   -----    wav  1.0000  ph2021-09-05.mk4v.sxr4+.1644.s2t10.wav
     5:56.24       62854892 B   ---   --   -----    wav  1.0000  ph2021-09-05.mk4v.sxr4+.1644.s2t11.wav
     6:16.30       66397004 B   ---   --   -----    wav  1.0000  ph2021-09-05.mk4v.sxr4+.1644.s2t12.wav
   178:15.44     1886702324 B                            1.0000  (19 files)





More information about the bittorrent mailing list