[bittorrent] Phish 2021-09-04 Dick's Sporting Park Commerce City, CO Schoeps mk4v>kc5>cmc6>Sonosax SX-R4+ flac16

Automated Mailer noreply-bt.e at etree.org
Thu Sep 9 02:38:24 UTC 2021


Band:           Phish
Torrent Name:   Phish 2021-09-04 Dick's Sporting Park Commerce City, CO Schoeps mk4v>kc5>cmc6>Sonosax SX-R4+ flac16
Uploaded by:    andyjah
DB Link:        
Details:        http://bt.etree.org/details.php?id=613786

Contact the seeder at http://db.etree.org/andyjah

If the link to this show does not work, it was probably removed for
being non-trade-friendly.

Description / text file:
-------------------------
Phish
2021-09-04
Dick's Sporting Goods Park
Commerce City, CO

mics were fob dfc 6’

Schoeps mk4v>kc5>cmc6>Sonosax SX-R4+
(~70degrees @ 21cm PAS) 

Sonosax SX-R4+>sd-xc card>Imac>Audacity(tracking,normalize,fades)>Sony Soundforge Convrt(resample(izotope,highest settings)/dither(mbit+/ultra, high dither)to 16 bit/44.1k)>XAct(FLAC 8,ffp,fix sbe)

Recorded,transferred and seeded by Andy Murray

Set 1

01. Alumni Blues>
02. Letter to Jimmy Page>
03. Alumni Blues
04. Turtle In The Clouds
05. Blaze On
06. Cool it Down
07. The Story of the Ghost>
08. Ya Mar
09. Undermind
10. Tube>
11. David Bowie

Set 2

12. Everything’s Right>
13. Fuego>
14. Farmhouse
15. Mercury>
16. Seven Below
17. Drift While You're Sleeping
18. You Enjoy Myself
19. Encore Break
20. Bold As Love

;flac fingerprints generated by xACT 2.48 on 2021-09-09 01:05:45 +0000

ph2021-09-04.mk4v.sxr4+.1644.s1t01.flac:abffb2880317463a2244ad33b7c78d9d
ph2021-09-04.mk4v.sxr4+.1644.s1t02.flac:3730c098da01a566241971bdd1f43709
ph2021-09-04.mk4v.sxr4+.1644.s1t03.flac:91914a9b8524a22324f5e37386de623a
ph2021-09-04.mk4v.sxr4+.1644.s1t04.flac:b17e3c21c84d0a54374975ffc339af34
ph2021-09-04.mk4v.sxr4+.1644.s1t05.flac:2af5560a0ebd27b47ccfc010c26eb81d
ph2021-09-04.mk4v.sxr4+.1644.s1t06.flac:3e2d4d966d33302c04421513cf382e5d
ph2021-09-04.mk4v.sxr4+.1644.s1t07.flac:c01af21ee11c09bbd6b8ef5ecae93d5c
ph2021-09-04.mk4v.sxr4+.1644.s1t08.flac:5466c4aeb8cce0965c723b0ee6908772
ph2021-09-04.mk4v.sxr4+.1644.s1t09.flac:534b0f8651166c984d143e22529bafc2
ph2021-09-04.mk4v.sxr4+.1644.s1t10.flac:d81012aecd9c48e9a012448c079281ab
ph2021-09-04.mk4v.sxr4+.1644.s1t11.flac:706fc6c66424e65ba50653d968ecc645
ph2021-09-04.mk4v.sxr4+.1644.s2t01.flac:f51a42cc72f4801caad0eadbaea63899
ph2021-09-04.mk4v.sxr4+.1644.s2t02.flac:4dd6d36c4d4e67e0f30c49cbd1d5d5c2
ph2021-09-04.mk4v.sxr4+.1644.s2t03.flac:c6079d877eddd59d5b8023f82ee3d61e
ph2021-09-04.mk4v.sxr4+.1644.s2t04.flac:b8cf07d8d73be9b89decab2026af070f
ph2021-09-04.mk4v.sxr4+.1644.s2t05.flac:07721e75fce3537c1f293083e0c3c7e6
ph2021-09-04.mk4v.sxr4+.1644.s2t06.flac:e065114dee137aef645cc1088203a70d
ph2021-09-04.mk4v.sxr4+.1644.s2t07.flac:93b3fe82b8d425c0054a113b70fd4e51
ph2021-09-04.mk4v.sxr4+.1644.s2t08.flac:9649167833b448d3504d22465ffae635
ph2021-09-04.mk4v.sxr4+.1644.s2t09.flac:dc5e3264088898e9bf5f9fda4a823eb8

    length     expanded size    cdr  WAVE problems  fmt   ratio  filename
     3:14.45       34327484 B   ---   --   -----    wav  1.0000  ph2021-09-04.mk4v.sxr4+.1644.s1t01.wav
     1:03.06       11127356 B   ---   --   -----    wav  1.0000  ph2021-09-04.mk4v.sxr4+.1644.s1t02.wav
     3:26.26       36399596 B   ---   --   -----    wav  1.0000  ph2021-09-04.mk4v.sxr4+.1644.s1t03.wav
     7:08.48       75612140 B   ---   --   -----    wav  1.0000  ph2021-09-04.mk4v.sxr4+.1644.s1t04.wav
    15:21.06      162478556 B   ---   --   -----    wav  1.0000  ph2021-09-04.mk4v.sxr4+.1644.s1t05.wav
     4:37.51       48982796 B   ---   --   -----    wav  1.0000  ph2021-09-04.mk4v.sxr4+.1644.s1t06.wav
    12:32.41      132749276 B   ---   --   -----    wav  1.0000  ph2021-09-04.mk4v.sxr4+.1644.s1t07.wav
     6:27.61       68410316 B   ---   --   -----    wav  1.0000  ph2021-09-04.mk4v.sxr4+.1644.s1t08.wav
     8:51.63       93816620 B   ---   --   -----    wav  1.0000  ph2021-09-04.mk4v.sxr4+.1644.s1t09.wav
     9:48.26      103784396 B   ---   --   -----    wav  1.0000  ph2021-09-04.mk4v.sxr4+.1644.s1t10.wav
    12:21.46      130820636 B   ---   --   -----    wav  1.0000  ph2021-09-04.mk4v.sxr4+.1644.s1t11.wav
    25:22.61      268624316 B   ---   --   -----    wav  1.0000  ph2021-09-04.mk4v.sxr4+.1644.s2t01.wav
    10:23.62      110043068 B   ---   --   -----    wav  1.0000  ph2021-09-04.mk4v.sxr4+.1644.s2t02.wav
     6:12.58       65757260 B   ---   --   -----    wav  1.0000  ph2021-09-04.mk4v.sxr4+.1644.s2t03.wav
    11:25.07      120850508 B   ---   --   -----    wav  1.0000  ph2021-09-04.mk4v.sxr4+.1644.s2t04.wav
     7:37.65       80767724 B   ---   --   -----    wav  1.0000  ph2021-09-04.mk4v.sxr4+.1644.s2t05.wav
    12:04.15      127748924 B   ---   --   -----    wav  1.0000  ph2021-09-04.mk4v.sxr4+.1644.s2t06.wav
    19:37.50      207740444 B   ---   --   -----    wav  1.0000  ph2021-09-04.mk4v.sxr4+.1644.s2t07.wav
     3:01.23       31982540 B   ---   --   -----    wav  1.0000  ph2021-09-04.mk4v.sxr4+.1644.s2t08.wav
     6:58.41       73831676 B   ---   --   -----    wav  1.0000  ph2021-09-04.mk4v.sxr4+.1644.s2t09.wav
   187:37.51     1985855632 B                            1.0000  (20 files)





More information about the bittorrent mailing list