[bittorrent] Phish 2021-09-03 Dick's Sporting Park Commerce City, CO Schoeps mk4v>kc5>cmc6>Sonosax SX-R4+ flac16

Automated Mailer noreply-bt.e at etree.org
Thu Sep 9 02:35:19 UTC 2021


Band:           Phish
Torrent Name:   Phish 2021-09-03 Dick's Sporting Park Commerce City, CO Schoeps mk4v>kc5>cmc6>Sonosax SX-R4+ flac16
Uploaded by:    andyjah
DB Link:        
Details:        http://bt.etree.org/details.php?id=613784

Contact the seeder at http://db.etree.org/andyjah

If the link to this show does not work, it was probably removed for
being non-trade-friendly.

Description / text file:
-------------------------
Phish
2021-09-03
Dick's Sporting Goods Park
Commerce City, CO

mics were fob dfc 6’

Schoeps mk4v>kc5>cmc6>Sonosax SX-R4+
(~70degrees @ 21cm PAS) 

Sonosax SX-R4+>sd-xc card>Imac>Audacity(tracking,normalize,fades)>Sony Soundforge Convrt(resample(izotope,highest settings)/dither(mbit+/ultra, high dither)to 16 bit/44.1k)>XAct(FLAC 8,ffp,fix sbe)

Recorded,transferred and seeded by Andy Murray

Set 1

01. 46 Days
02. Party Time
03. Steam
04. Timber
05. Yarmouth Road
06. Foam
07. Vultures
08. Pebbles & Marbles
09. Carini

Set 2

10. Rise/Come Together>
11. The Song I Heard the Ocean Sing>
12. Chalk Dust Torture
13. Beneath a Sea of Stars pt1>
14. Light>
15. Plasma>
16. Runaway Jim
17. Slave to the Traffic Light
18. Encore break
19. Cavern>
20. Waste
21. Good Times Bad Times

;flac fingerprints generated by xACT 2.38 on 2021-09-08 23:14:35 +0000

ph2021-09-03.mk4v.sxr4+.1644.s1t01.flac:e4721396759f23deb1abbc8d5810bbcc
ph2021-09-03.mk4v.sxr4+.1644.s1t02.flac:c414f655cc71d5f385633a415fc3f5a9
ph2021-09-03.mk4v.sxr4+.1644.s1t03.flac:547b7daa467ee1876f4388f2597b462e
ph2021-09-03.mk4v.sxr4+.1644.s1t04.flac:a0860335484c1e7b91158d4347ef4ffc
ph2021-09-03.mk4v.sxr4+.1644.s1t05.flac:b370fa59488da9325b6a9e6e7b5315b9
ph2021-09-03.mk4v.sxr4+.1644.s1t06.flac:00e865ca0bef2fd1cd461259f7dfb740
ph2021-09-03.mk4v.sxr4+.1644.s1t07.flac:c9703be39ee6b3aee1fe71fb203a356d
ph2021-09-03.mk4v.sxr4+.1644.s1t08.flac:a4126e17e47e643d4a4cfece202a6c9c
ph2021-09-03.mk4v.sxr4+.1644.s1t09.flac:aaf355c98c7a4830ec4c43bc4a89fb83
ph2021-09-03.mk4v.sxr4+.1644.s2t01.flac:46c70c3fc460af0aac89583374a80d47
ph2021-09-03.mk4v.sxr4+.1644.s2t02.flac:5d761efa56eceebedab5ad455d4e64b7
ph2021-09-03.mk4v.sxr4+.1644.s2t03.flac:d965eccfe8dc92317760a757b39ca3ba
ph2021-09-03.mk4v.sxr4+.1644.s2t04.flac:1853695e9cf6171f1dd86aca9118eb23
ph2021-09-03.mk4v.sxr4+.1644.s2t05.flac:038812783d252b0ace99bf7c1f889879
ph2021-09-03.mk4v.sxr4+.1644.s2t06.flac:75e1bf5f360bc6fca282f8a24a02fc01
ph2021-09-03.mk4v.sxr4+.1644.s2t07.flac:dea4f627c8997404e95d967d1e67de7f
ph2021-09-03.mk4v.sxr4+.1644.s2t08.flac:a6639c509755943f5687b3091aa220d0
ph2021-09-03.mk4v.sxr4+.1644.s2t09.flac:00ba1e3760886e5cee0a9648894a2912
ph2021-09-03.mk4v.sxr4+.1644.s2t10.flac:6f920985736bda1344440f16a4cb2e6e
ph2021-09-03.mk4v.sxr4+.1644.s2t11.flac:770c38a091b5620d3db90d00ff3c2785
ph2021-09-03.mk4v.sxr4+.1644.s2t12.flac:7baef4874d8f5c1cd88d493976d95291

    length     expanded size    cdr  WAVE problems  fmt   ratio  filename
     8:20.60       88341164 B   ---   --   -----    wav  1.0000  ph2021-09-03.mk4v.sxr4+.1644.s1t01.wav
     8:34.42       90768428 B   ---   --   -----    wav  1.0000  ph2021-09-03.mk4v.sxr4+.1644.s1t02.wav
     8:33.05       90505004 B   ---   --   -----    wav  1.0000  ph2021-09-03.mk4v.sxr4+.1644.s1t03.wav
     7:35.08       80280860 B   ---   --   -----    wav  1.0000  ph2021-09-03.mk4v.sxr4+.1644.s1t04.wav
     6:31.02       68977148 B   ---   --   -----    wav  1.0000  ph2021-09-03.mk4v.sxr4+.1644.s1t05.wav
     8:16.12       87522668 B   ---   --   -----    wav  1.0000  ph2021-09-03.mk4v.sxr4+.1644.s1t06.wav
     9:06.10       96337964 B   ---   --   -----    wav  1.0000  ph2021-09-03.mk4v.sxr4+.1644.s1t07.wav
     8:35.28       90911900 B   ---   --   -----    wav  1.0000  ph2021-09-03.mk4v.sxr4+.1644.s1t08.wav
    22:24.00      237081644 B   ---   --   -----    wav  1.0000  ph2021-09-03.mk4v.sxr4+.1644.s1t09.wav
     4:34.45       48439484 B   ---   --   -----    wav  1.0000  ph2021-09-03.mk4v.sxr4+.1644.s2t01.wav
     7:56.14       83999372 B   ---   --   -----    wav  1.0000  ph2021-09-03.mk4v.sxr4+.1644.s2t02.wav
    20:10.55      213573404 B   ---   --   -----    wav  1.0000  ph2021-09-03.mk4v.sxr4+.1644.s2t03.wav
    10:40.03      112903100 B   ---   --   -----    wav  1.0000  ph2021-09-03.mk4v.sxr4+.1644.s2t04.wav
     8:05.57       85688108 B   ---   --   -----    wav  1.0000  ph2021-09-03.mk4v.sxr4+.1644.s2t05.wav
     6:01.37       63767468 B   ---   --   -----    wav  1.0000  ph2021-09-03.mk4v.sxr4+.1644.s2t06.wav
     7:25.21       78547436 B   ---   --   -----    wav  1.0000  ph2021-09-03.mk4v.sxr4+.1644.s2t07.wav
    11:23.22      120532988 B   ---   --   -----    wav  1.0000  ph2021-09-03.mk4v.sxr4+.1644.s2t08.wav
     2:57.30       31293404 B   ---   --   -----    wav  1.0000  ph2021-09-03.mk4v.sxr4+.1644.s2t09.wav
     4:30.60       47769164 B   ---   --   -----    wav  1.0000  ph2021-09-03.mk4v.sxr4+.1644.s2t10.wav
     5:37.51       59566796 B   ---   --   -----    wav  1.0000  ph2021-09-03.mk4v.sxr4+.1644.s2t11.wav
     6:53.32       72928508 B   ---   --   -----    wav  1.0000  ph2021-09-03.mk4v.sxr4+.1644.s2t12.wav
   184:12.69     1949736012 B                            1.0000  (21 files)





More information about the bittorrent mailing list