[bittorrent] Phish 2021-09-05 Dick's Sporting Park Commerce City, CO Schoeps mk22>cmc1k>Sonosax SX-R4+ flac16

Automated Mailer noreply-bt.e at etree.org
Wed Sep 8 22:06:37 UTC 2021


Band:           Phish
Torrent Name:   Phish 2021-09-05 Dick's Sporting Park Commerce City, CO Schoeps mk22>cmc1k>Sonosax SX-R4+ flac16
Uploaded by:    andyjah
DB Link:        
Details:        http://bt.etree.org/details.php?id=613778

Contact the seeder at http://db.etree.org/andyjah

If the link to this show does not work, it was probably removed for
being non-trade-friendly.

Description / text file:
-------------------------
Phish
2021-09-05
Dick's Sporting Goods Park
Commerce City, CO

mics were fob dfc 6’

Schoeps mk22>cmc1k>Sonosax SX-R4+
(~60degrees @ 31cm)

Sonosax SX-R4+>sd-xc card>Imac>Audacity(tracking,normalize,fades)>Sony Soundforge Convrt(resample(izotope,highest settings)/dither(mbit+/ultra, high dither)to 16 bit/44.1k)>XAct(FLAC 8,ffp,fix sbe)

Recorded,transferred and seeded by Andy Murray

Set 1

01. The Moma Dance
02. McGrupp & the Watchful Hosemasters
03. Sand>
04. Sigma Oasis>
05. All of These Dreams
06. Reba
07. Bathtub Gin

Set 2

08. Set Your Soul Free>
09. Lonely Trip
10. Simple>
11. Catapult>
12. Meatstick>
13. Ruby Waves>
14. Billy Breathes
15. Most Events Aren’t Planned
16. Harry Hood
17. Encore Break
18. More
19. Say it to Me S.A.N.T.O.S

;flac fingerprints generated by xACT 2.38 on 2021-09-08 06:22:03 +0000

ph2021-09-05.mk22.sxr4+.1644.s1t01.flac:e564cdf4319f74419c47b4d6f385ff97
ph2021-09-05.mk22.sxr4+.1644.s1t02.flac:995efeca9513867cf0d5643dccc4d2e8
ph2021-09-05.mk22.sxr4+.1644.s1t03.flac:09820c17bdba89f2600c701beb2ce08f
ph2021-09-05.mk22.sxr4+.1644.s1t04.flac:969044e5dd41d3cfa8111c0c996fd8f0
ph2021-09-05.mk22.sxr4+.1644.s1t05.flac:a1a919671912608cf6c923d9b829612c
ph2021-09-05.mk22.sxr4+.1644.s1t06.flac:3f127f3654fdbf6b97982059825216d6
ph2021-09-05.mk22.sxr4+.1644.s1t07.flac:cc0a3a54c46fa1a0816e8d602da9dd9f
ph2021-09-05.mk22.sxr4+.1644.s2t01.flac:e3d9db208b921883368a7e2678878afb
ph2021-09-05.mk22.sxr4+.1644.s2t02.flac:d1d8cd071eeeb4ab5ded933c68491147
ph2021-09-05.mk22.sxr4+.1644.s2t03.flac:68f0d2b71d641d83f90519ee089d5ec2
ph2021-09-05.mk22.sxr4+.1644.s2t04.flac:ebeba09b3db10dee7323a18e210429b2
ph2021-09-05.mk22.sxr4+.1644.s2t05.flac:300a330a2c9eb069ede39a0f5cbce98b
ph2021-09-05.mk22.sxr4+.1644.s2t06.flac:c2b0103e0be431d175fff4cb73a50d16
ph2021-09-05.mk22.sxr4+.1644.s2t07.flac:5ee0ef3532ff47e0f2a1cc19529d9682
ph2021-09-05.mk22.sxr4+.1644.s2t08.flac:d598467e7f71b31cfaeee67a1fbccab3
ph2021-09-05.mk22.sxr4+.1644.s2t09.flac:306cfabbbdf0556db6707dbf2a066334
ph2021-09-05.mk22.sxr4+.1644.s2t10.flac:b61989236673361dc106d03df9af148f
ph2021-09-05.mk22.sxr4+.1644.s2t11.flac:b9000ad868b39225b6f91817af6e9d03
ph2021-09-05.mk22.sxr4+.1644.s2t12.flac:aca118b36d8da34fe1c044f3c64cb4c2

    length     expanded size    cdr  WAVE problems  fmt   ratio  filename
     9:04.34       96041612 B   ---   --   -----    wav  1.0000  ph2021-09-05.mk22.sxr4+.1644.s1t01.wav
     8:30.27       90027548 B   ---   --   -----    wav  1.0000  ph2021-09-05.mk22.sxr4+.1644.s1t02.wav
    13:57.63      147795020 B   ---   --   -----    wav  1.0000  ph2021-09-05.mk22.sxr4+.1644.s1t03.wav
    15:06.07      159834908 B   ---   --   -----    wav  1.0000  ph2021-09-05.mk22.sxr4+.1644.s1t04.wav
     3:50.13       40602620 B   ---   --   -----    wav  1.0000  ph2021-09-05.mk22.sxr4+.1644.s1t05.wav
    11:31.39      121984172 B   ---   --   -----    wav  1.0000  ph2021-09-05.mk22.sxr4+.1644.s1t06.wav
    14:15.44      150925532 B   ---   --   -----    wav  1.0000  ph2021-09-05.mk22.sxr4+.1644.s1t07.wav
    19:11.18      203078780 B   ---   --   -----    wav  1.0000  ph2021-09-05.mk22.sxr4+.1644.s2t01.wav
     6:10.29       65336252 B   ---   --   -----    wav  1.0000  ph2021-09-05.mk22.sxr4+.1644.s2t02.wav
     8:37.20       91245884 B   ---   --   -----    wav  1.0000  ph2021-09-05.mk22.sxr4+.1644.s2t03.wav
     6:12.01       65623196 B   ---   --   -----    wav  1.0000  ph2021-09-05.mk22.sxr4+.1644.s2t04.wav
     8:40.00       91728044 B   ---   --   -----    wav  1.0000  ph2021-09-05.mk22.sxr4+.1644.s2t05.wav
    13:14.03      140068700 B   ---   --   -----    wav  1.0000  ph2021-09-05.mk22.sxr4+.1644.s2t06.wav
     5:16.47       55852988 B   ---   --   -----    wav  1.0000  ph2021-09-05.mk22.sxr4+.1644.s2t07.wav
     8:08.40       86177324 B   ---   --   -----    wav  1.0000  ph2021-09-05.mk22.sxr4+.1644.s2t08.wav
    11:44.31      124258556 B   ---   --   -----    wav  1.0000  ph2021-09-05.mk22.sxr4+.1644.s2t09.wav
     2:32.24       26869292 B   ---   --   -----    wav  1.0000  ph2021-09-05.mk22.sxr4+.1644.s2t10.wav
     5:56.24       62854892 B   ---   --   -----    wav  1.0000  ph2021-09-05.mk22.sxr4+.1644.s2t11.wav
     6:16.30       66397004 B   ---   --   -----    wav  1.0000  ph2021-09-05.mk22.sxr4+.1644.s2t12.wav
   178:15.44     1886702324 B                            1.0000  (19 files)





More information about the bittorrent mailing list