[bittorrent] Phish 2021-09-04 Dick's Sporting Park Commerce City, CO Schoeps mk22>cmc1k>Sonosax SX-R4+ flac16

Automated Mailer noreply-bt.e at etree.org
Wed Sep 8 22:04:13 UTC 2021


Band:           Phish
Torrent Name:   Phish 2021-09-04 Dick's Sporting Park Commerce City, CO Schoeps mk22>cmc1k>Sonosax SX-R4+ flac16
Uploaded by:    andyjah
DB Link:        
Details:        http://bt.etree.org/details.php?id=613776

Contact the seeder at http://db.etree.org/andyjah

If the link to this show does not work, it was probably removed for
being non-trade-friendly.

Description / text file:
-------------------------
Phish
2021-09-04
Dick's Sporting Goods Park
Commerce City, CO

mics were fob dfc 6’

Schoeps mk22>cmc1k>Sonosax SX-R4+
(~60degrees @ 31cm)

Sonosax SX-R4+>sd-xc card>Imac>Audacity(tracking,normalize,fades)>Sony Soundforge Convrt(resample(izotope,highest settings)/dither(mbit+/ultra, high dither)to 16 bit/44.1k)>XAct(FLAC 8,ffp,fix sbe)

Recorded,transferred and seeded by Andy Murray

Set 1

01. Alumni Blues>
02. Letter to Jimmy Page>
03. Alumni Blues
04. Turtle In The Clouds
05. Blaze On
06. Cool it Down
07. The Story of the Ghost>
08. Ya Mar
09. Undermind
10. Tube>
11. David Bowie

Set 2

12. Everything’s Right>
13. Fuego>
14. Farmhouse
15. Mercury>
16. Seven Below
17. Drift While You're Sleeping
18. You Enjoy Myself
19. Encore Break
20. Bold As Love

;flac fingerprints generated by xACT 2.38 on 2021-09-08 05:08:37 +0000

ph2021-09-04.mk22.sxr4+.1644.s1t01.flac:f41bbdd562f8b4434995a6a86b1069e1
ph2021-09-04.mk22.sxr4+.1644.s1t02.flac:3426fdcd15793efa6cba41919fef87a1
ph2021-09-04.mk22.sxr4+.1644.s1t03.flac:c67352a87af6648a921ba30365632c9a
ph2021-09-04.mk22.sxr4+.1644.s1t04.flac:af1f751b0ff324c341b54c8574bc8f2a
ph2021-09-04.mk22.sxr4+.1644.s1t05.flac:0b06754dafee360bb30f84da23ad0c60
ph2021-09-04.mk22.sxr4+.1644.s1t06.flac:9b3a5b3d5d3d1d07656cd0a4aacf284f
ph2021-09-04.mk22.sxr4+.1644.s1t07.flac:70ed0e4abec2eaea596672a5c12b6160
ph2021-09-04.mk22.sxr4+.1644.s1t08.flac:d603e3476eea93d3ba727e07611bf3e2
ph2021-09-04.mk22.sxr4+.1644.s1t09.flac:1118cbd9882cf8a2008f7baa0ab99ee5
ph2021-09-04.mk22.sxr4+.1644.s1t10.flac:9e4930a8aebd65a59e653247febfcb3c
ph2021-09-04.mk22.sxr4+.1644.s1t11.flac:2303f2eea3a699bab80263cdf7943c3d
ph2021-09-04.mk22.sxr4+.1644.s2t01.flac:cb4e43abf7f2ccf6992d186fb0d92a86
ph2021-09-04.mk22.sxr4+.1644.s2t02.flac:9c2a2035cbf80bcc9ea56074938bc247
ph2021-09-04.mk22.sxr4+.1644.s2t03.flac:4aa2e7311dd74a99fa78c81f480b4d09
ph2021-09-04.mk22.sxr4+.1644.s2t04.flac:0d87a667398fc2b7f7459ffa625c9dd3
ph2021-09-04.mk22.sxr4+.1644.s2t05.flac:75ee8dc7e74ab1419ecd307da086381d
ph2021-09-04.mk22.sxr4+.1644.s2t06.flac:ecc1bc010df0d8ada1bfd3de7e61c527
ph2021-09-04.mk22.sxr4+.1644.s2t07.flac:540dda9ae0d77f92c9e1492f8724f233
ph2021-09-04.mk22.sxr4+.1644.s2t08.flac:fd7ded8b2b4d9b763b32573e909dc317
ph2021-09-04.mk22.sxr4+.1644.s2t09.flac:93c01481cd7c24444b959ae9f70db125

    length     expanded size    cdr  WAVE problems  fmt   ratio  filename
     3:14.45       34327484 B   ---   --   -----    wav  1.0000  ph2021-09-04.mk22.sxr4+.1644.s1t01.wav
     1:03.06       11127356 B   ---   --   -----    wav  1.0000  ph2021-09-04.mk22.sxr4+.1644.s1t02.wav
     3:26.26       36399596 B   ---   --   -----    wav  1.0000  ph2021-09-04.mk22.sxr4+.1644.s1t03.wav
     7:08.48       75612140 B   ---   --   -----    wav  1.0000  ph2021-09-04.mk22.sxr4+.1644.s1t04.wav
    15:21.06      162478556 B   ---   --   -----    wav  1.0000  ph2021-09-04.mk22.sxr4+.1644.s1t05.wav
     4:37.51       48982796 B   ---   --   -----    wav  1.0000  ph2021-09-04.mk22.sxr4+.1644.s1t06.wav
    12:32.41      132749276 B   ---   --   -----    wav  1.0000  ph2021-09-04.mk22.sxr4+.1644.s1t07.wav
     6:27.61       68410316 B   ---   --   -----    wav  1.0000  ph2021-09-04.mk22.sxr4+.1644.s1t08.wav
     8:51.63       93816620 B   ---   --   -----    wav  1.0000  ph2021-09-04.mk22.sxr4+.1644.s1t09.wav
     9:48.26      103784396 B   ---   --   -----    wav  1.0000  ph2021-09-04.mk22.sxr4+.1644.s1t10.wav
    12:21.46      130820636 B   ---   --   -----    wav  1.0000  ph2021-09-04.mk22.sxr4+.1644.s1t11.wav
    25:22.61      268624316 B   ---   --   -----    wav  1.0000  ph2021-09-04.mk22.sxr4+.1644.s2t01.wav
    10:23.62      110043068 B   ---   --   -----    wav  1.0000  ph2021-09-04.mk22.sxr4+.1644.s2t02.wav
     6:12.58       65757260 B   ---   --   -----    wav  1.0000  ph2021-09-04.mk22.sxr4+.1644.s2t03.wav
    11:25.07      120850508 B   ---   --   -----    wav  1.0000  ph2021-09-04.mk22.sxr4+.1644.s2t04.wav
     7:37.65       80767724 B   ---   --   -----    wav  1.0000  ph2021-09-04.mk22.sxr4+.1644.s2t05.wav
    12:04.15      127748924 B   ---   --   -----    wav  1.0000  ph2021-09-04.mk22.sxr4+.1644.s2t06.wav
    19:37.50      207740444 B   ---   --   -----    wav  1.0000  ph2021-09-04.mk22.sxr4+.1644.s2t07.wav
     3:01.23       31982540 B   ---   --   -----    wav  1.0000  ph2021-09-04.mk22.sxr4+.1644.s2t08.wav
     6:58.41       73831676 B   ---   --   -----    wav  1.0000  ph2021-09-04.mk22.sxr4+.1644.s2t09.wav
   187:37.51     1985855632 B                            1.0000  (20 files)





More information about the bittorrent mailing list