[bittorrent] Phish 2021-09-03 Dick's Sporting Park Commerce City, CO Schoeps mk22>cmc1k>Sonosax SX-R4+ flac16

Automated Mailer noreply-bt.e at etree.org
Wed Sep 8 22:01:33 UTC 2021


Band:           Phish
Torrent Name:   Phish 2021-09-03 Dick's Sporting Park Commerce City, CO Schoeps mk22>cmc1k>Sonosax SX-R4+ flac16
Uploaded by:    andyjah
DB Link:        
Details:        http://bt.etree.org/details.php?id=613774

Contact the seeder at http://db.etree.org/andyjah

If the link to this show does not work, it was probably removed for
being non-trade-friendly.

Description / text file:
-------------------------
Phish
2021-09-03
Dick's Sporting Goods Park
Commerce City, CO

mics were fob dfc 6’

Schoeps mk22>cmc1k>Sonosax SX-R4+
(~60degrees @ 31cm)

Sonosax SX-R4+>sd-xc card>Imac>Audacity(tracking,normalize,fades)>Sony Soundforge Convrt(resample(izotope,highest settings)/dither(mbit+/ultra, high dither)to 16 bit/44.1k)>XAct(FLAC 8,ffp,fix sbe)

Recorded,transferred and seeded by Andy Murray

Set 1

01. 46 Days
02. Party Time
03. Steam
04. Timber
05. Yarmouth Road
06. Foam
07. Vultures
08. Pebbles & Marbles
09. Carini

Set 2

10. Rise/Come Together>
11. The Song I Heard the Ocean Sing>
12. Chalk Dust Torture
13. Beneath a Sea of Stars pt1>
14. Light>
15. Plasma>
16. Runaway Jim
17. Slave to the Traffic Light
18. Encore break
19. Cavern>
20. Waste
21. Good Times Bad Times

;flac fingerprints generated by xACT 2.38 on 2021-09-08 03:08:43 +0000

ph2021-09-03.mk22.sxr4+.1644.s1t01.flac:6e54fc128c6161e27e5e9349c79cb2d0
ph2021-09-03.mk22.sxr4+.1644.s1t02.flac:5c5d96c01e63313ce18089ecbb374cdf
ph2021-09-03.mk22.sxr4+.1644.s1t03.flac:211bf8e4572257276d7fe41ea5f87c14
ph2021-09-03.mk22.sxr4+.1644.s1t04.flac:726ba199bc79bc39fb10b758c91bc75a
ph2021-09-03.mk22.sxr4+.1644.s1t05.flac:1af66be5c72c7e67ec9c8dcec1045f4a
ph2021-09-03.mk22.sxr4+.1644.s1t06.flac:3713fc5fdb6ae60b36a029f425758988
ph2021-09-03.mk22.sxr4+.1644.s1t07.flac:cedcf97e3ced6a6b2a4b0e543431ff5f
ph2021-09-03.mk22.sxr4+.1644.s1t08.flac:52c75bed114581470b890d6ae1db490c
ph2021-09-03.mk22.sxr4+.1644.s1t09.flac:9f0220c9901efff25ac328c5dc62eb68
ph2021-09-03.mk22.sxr4+.1644.s2t01.flac:b03bc8ab11b541e8a26b54873122bc91
ph2021-09-03.mk22.sxr4+.1644.s2t02.flac:2427dd9a7fdaa1b8a61890ec14cf597d
ph2021-09-03.mk22.sxr4+.1644.s2t03.flac:2087d4140971fb508dbf5b595e338133
ph2021-09-03.mk22.sxr4+.1644.s2t04.flac:c97e0f37cf6ca246d7560380ffa14e07
ph2021-09-03.mk22.sxr4+.1644.s2t05.flac:69a188c6c99d0bc0c225bfb999b1a010
ph2021-09-03.mk22.sxr4+.1644.s2t06.flac:8e8eda254a4edf5d4ce91d0a200b8ec8
ph2021-09-03.mk22.sxr4+.1644.s2t07.flac:1412c246e4f2d6627a9de9e9274ed838
ph2021-09-03.mk22.sxr4+.1644.s2t08.flac:e47345d7d77303d9eba8e7068dd59fdd
ph2021-09-03.mk22.sxr4+.1644.s2t09.flac:5859a2fdec69a566d4d4a69653d32400
ph2021-09-03.mk22.sxr4+.1644.s2t10.flac:b39e2986b4ef819c8424fa532ff5ee42
ph2021-09-03.mk22.sxr4+.1644.s2t11.flac:d78e14e09df286d50c440df89e9e352c
ph2021-09-03.mk22.sxr4+.1644.s2t12.flac:df451013e632d677da0090d15146d714

    length     expanded size    cdr  WAVE problems  fmt   ratio  filename
     8:20.60       88341164 B   ---   --   -----    wav  1.0000  ph2021-09-03.mk22.sxr4+.1644.s1t01.wav
     8:34.42       90768428 B   ---   --   -----    wav  1.0000  ph2021-09-03.mk22.sxr4+.1644.s1t02.wav
     8:33.05       90505004 B   ---   --   -----    wav  1.0000  ph2021-09-03.mk22.sxr4+.1644.s1t03.wav
     7:35.08       80280860 B   ---   --   -----    wav  1.0000  ph2021-09-03.mk22.sxr4+.1644.s1t04.wav
     6:31.02       68977148 B   ---   --   -----    wav  1.0000  ph2021-09-03.mk22.sxr4+.1644.s1t05.wav
     8:16.12       87522668 B   ---   --   -----    wav  1.0000  ph2021-09-03.mk22.sxr4+.1644.s1t06.wav
     9:06.10       96337964 B   ---   --   -----    wav  1.0000  ph2021-09-03.mk22.sxr4+.1644.s1t07.wav
     8:35.28       90911900 B   ---   --   -----    wav  1.0000  ph2021-09-03.mk22.sxr4+.1644.s1t08.wav
    22:24.00      237081644 B   ---   --   -----    wav  1.0000  ph2021-09-03.mk22.sxr4+.1644.s1t09.wav
     4:34.45       48439484 B   ---   --   -----    wav  1.0000  ph2021-09-03.mk22.sxr4+.1644.s2t01.wav
     7:56.14       83999372 B   ---   --   -----    wav  1.0000  ph2021-09-03.mk22.sxr4+.1644.s2t02.wav
    20:10.55      213573404 B   ---   --   -----    wav  1.0000  ph2021-09-03.mk22.sxr4+.1644.s2t03.wav
    10:40.03      112903100 B   ---   --   -----    wav  1.0000  ph2021-09-03.mk22.sxr4+.1644.s2t04.wav
     8:05.57       85688108 B   ---   --   -----    wav  1.0000  ph2021-09-03.mk22.sxr4+.1644.s2t05.wav
     6:01.37       63767468 B   ---   --   -----    wav  1.0000  ph2021-09-03.mk22.sxr4+.1644.s2t06.wav
     7:25.21       78547436 B   ---   --   -----    wav  1.0000  ph2021-09-03.mk22.sxr4+.1644.s2t07.wav
    11:23.22      120532988 B   ---   --   -----    wav  1.0000  ph2021-09-03.mk22.sxr4+.1644.s2t08.wav
     2:57.30       31293404 B   ---   --   -----    wav  1.0000  ph2021-09-03.mk22.sxr4+.1644.s2t09.wav
     4:30.60       47769164 B   ---   --   -----    wav  1.0000  ph2021-09-03.mk22.sxr4+.1644.s2t10.wav
     5:37.51       59566796 B   ---   --   -----    wav  1.0000  ph2021-09-03.mk22.sxr4+.1644.s2t11.wav
     6:53.32       72928508 B   ---   --   -----    wav  1.0000  ph2021-09-03.mk22.sxr4+.1644.s2t12.wav
   184:12.69     1949736012 B                            1.0000  (21 files)





More information about the bittorrent mailing list