[bittorrent] Escape Vehicle Steady Hand Beer Co. Atlanta, Georgia 8/29/2021 (Z-Man Schoeps CCM4V'S FOB)

Automated Mailer noreply-bt.e at etree.org
Wed Sep 8 15:31:43 UTC 2021


Band:           Other
Torrent Name:   Escape Vehicle Steady Hand Beer Co. Atlanta, Georgia 8/29/2021 (Z-Man Schoeps CCM4V'S FOB) 
Uploaded by:    zmanatl
DB Link:        
Details:        http://bt.etree.org/details.php?id=613767

Contact the seeder at http://db.etree.org/zmanatl

If the link to this show does not work, it was probably removed for
being non-trade-friendly.

Description / text file:
-------------------------
Escape Vehicle
Steady Hand Beer Co.
Atlanta, Georgia
8/29/2021 

Source: Schoeps CCM4V'S>Lunatec V2>Sound Devices 722 (24/44.1)
FOB/DFC/KFC/ZFC/AARP 8' From Stage, 5 1/2' High
DSP: Sound Devices 722>Sound Forge 10.0>CD Wave>flac(16)
ID3 Tagged In Foobar 2000
Recorded By: Z-Man
Seeded By: Z-Man
A Team Dirty South Recording

Disc I 1st Set

01 Bertha
02 Diggin'
03 Brown-Eyed Women
04 Honeysucle Blue
05 Crazy Fingers >
06 Down Under
07 Can't Find My Way Home
08 Lawyers, Guns, And Money
09 Ophelia >
10 They Love Each Other
11 Makes Sense To Me
12 Fine Company

Disc II 2nd Set

01 *Ain't No Bread In The Breadbox 
02 Heaven
03 Cheap Sunglasses
04 Shady Lady
05 *Love In The Afternoon
06 *#Dead Flowers 
07 Sharon
08 *Hell In A Bucket
09 Skint
10 Dirty Mind
11 Postcard
12 Sympathy For The Devil

* First Time Played
# With Curt Alexander On Guitar And Vocals

Kevin Moore - Guitar And Vocals
Scott Lofranco - Guitar And Vocals
Malcom Fields - Bass And Vocals
Grant Duffy - Keyboard And Vocals
Ryan Marcus - Drums

escape2021-08-29d01t01.flac:286ea7f49e4826fad5b25660eea1569b
escape2021-08-29d01t02.flac:c37e67508f29c249cb731035bb1c57c0
escape2021-08-29d01t03.flac:00fb88201c953e72d49c4572f08dd3a4
escape2021-08-29d01t04.flac:7aa56ae0ec0680003ecf2b937258c364
escape2021-08-29d01t05.flac:e111927f5441f60e53266acfd7119a63
escape2021-08-29d01t06.flac:9855870361ffc82d9e503afabf524404
escape2021-08-29d01t07.flac:01d8c706ab872ced2c29250d6f208da8
escape2021-08-29d01t08.flac:c5588df384795305e59c21f8676444cc
escape2021-08-29d01t09.flac:103dc1e58b90ead086d8c0ec090003e4
escape2021-08-29d01t10.flac:505721a4fdea60a2bd3a1d1ecbc9ed0a
escape2021-08-29d01t11.flac:99e46d44c03debc20a177aca26e949e3
escape2021-08-29d01t12.flac:93ed0b4c7b16586595a3041a636e088a
escape2021-08-29d02t01.flac:fa15232edc0dc50bb82a769013695f12
escape2021-08-29d02t02.flac:a5ab6ce16a3d7b81f20cd9d0380101e9
escape2021-08-29d02t03.flac:30ccb19fe4325b1f54ccc9bdb2979cef
escape2021-08-29d02t04.flac:451ebfc7ba57c5520e2899eb462a0059
escape2021-08-29d02t05.flac:0eeec4a1fae700ee91e89865211da545
escape2021-08-29d02t06.flac:b359e72669dee9935bdb026f8751924e
escape2021-08-29d02t07.flac:8ca80a620a3515b830f6debf6e8c5459
escape2021-08-29d02t08.flac:50944c4c89a2e3f85182ad5ff57c6e77
escape2021-08-29d02t09.flac:28c231014947d8c7af4a185715387cf7
escape2021-08-29d02t10.flac:91f6425318d545b1602da61428d0e064
escape2021-08-29d02t11.flac:00547e975edecfb1207a56ffd413290c
escape2021-08-29d02t12.flac:68e9de2d77767cbaf8e20e903899b3fd

length     expanded size    cdr  WAVE problems  fmt   ratio  filename
     9:08.22       96718988 B   ---   --   ---xx   flac  0.4969  escape2021-08-29d01t01.flac
     4:55.58       52174460 B   ---   --   ---xx   flac  0.4871  escape2021-08-29d01t02.flac
     7:23.60       78286364 B   ---   --   ---xx   flac  0.4789  escape2021-08-29d01t03.flac
     5:45.56       60989756 B   ---   --   ---xx   flac  0.5143  escape2021-08-29d01t04.flac
     9:00.29       95324252 B   ---   --   ---xx   flac  0.4971  escape2021-08-29d01t05.flac
     7:10.24       75908492 B   ---   --   ---xx   flac  0.5248  escape2021-08-29d01t06.flac
     5:44.26       60742796 B   ---   --   ---xx   flac  0.4598  escape2021-08-29d01t07.flac
     4:21.42       46139228 B   ---   --   ---xx   flac  0.5198  escape2021-08-29d01t08.flac
     3:41.01       38986796 B   ---   --   ---xx   flac  0.5163  escape2021-08-29d01t09.flac
     6:50.06       72338156 B   ---   --   ---xx   flac  0.4745  escape2021-08-29d01t10.flac
     6:24.26       67798796 B   ---   --   ---xx   flac  0.4703  escape2021-08-29d01t11.flac
     7:40.33       81221660 B   ---   --   ---xx   flac  0.4714  escape2021-08-29d01t12.flac
     8:25.31       89154956 B   ---   --   ---xx   flac  0.4711  escape2021-08-29d02t01.flac
     8:23.45       88835084 B   ---   --   ---xx   flac  0.4475  escape2021-08-29d02t02.flac
     4:43.25       49980044 B   ---   --   ---xx   flac  0.4685  escape2021-08-29d02t03.flac
     6:51.63       72648620 B   ---   --   ---xx   flac  0.4737  escape2021-08-29d02t04.flac
     8:11.42       86711228 B   ---   --   ---xx   flac  0.4124  escape2021-08-29d02t05.flac
     5:10.22       54735788 B   ---   --   ---xx   flac  0.4956  escape2021-08-29d02t06.flac
    10:59.38      116337020 B   ---   --   ---xx   flac  0.4677  escape2021-08-29d02t07.flac
     7:19.34       77519612 B   ---   --   ---xx   flac  0.4903  escape2021-08-29d02t08.flac
     8:54.14       94230572 B   ---   --   ---xx   flac  0.4630  escape2021-08-29d02t09.flac
     6:39.51       70503596 B   ---   --   ---xx   flac  0.5053  escape2021-08-29d02t10.flac
     5:00.04       52929452 B   ---   --   ---xx   flac  0.5157  escape2021-08-29d02t11.flac
     8:29.47       89898188 B   ---   --   ---xx   flac  0.4943  escape2021-08-29d02t12.flac
   167:14.49     1770113904 B                            0.4813  (24 files)




More information about the bittorrent mailing list