[bittorrent] The Six Feet Of Separation Band Cousin Eddie's Birthday Bash Jason Novoselski's House Marietta, Georgia 8/25/2021 (Z-Man Schoeps CCM4V'S FOB)

Automated Mailer noreply-bt.e at etree.org
Wed Sep 8 01:41:56 UTC 2021


Band:           Other
Torrent Name:   The Six Feet Of Separation Band Cousin Eddie's Birthday Bash Jason Novoselski's House Marietta, Georgia 8/25/2021 (Z-Man Schoeps CCM4V'S FOB)
Uploaded by:    zmanatl
DB Link:        
Details:        http://bt.etree.org/details.php?id=613758

Contact the seeder at http://db.etree.org/zmanatl

If the link to this show does not work, it was probably removed for
being non-trade-friendly.

Description / text file:
-------------------------
The Six Feet Of Separation Band
Cousin Eddie's Birthday Bash
Jason Novoselski's House
Marietta, Georgia
8/25/2021 

Source: Schoeps CCM4V'S>Lunatec V2>Sound Devices 722 (24/44.1)
FOB/DFC/KFC/ZFC/AARP 6' From Stage, 4 1/2' High
DSP: Sound Devices 722>Sound Forge 10.0>CD Wave>flac(16)
ID3 Tagged In Foobar 2000
Recorded By: Z-Man
Seeded By: Z-Man
A Team Dirty South Recording

Disc I 

01 Fried Green Tomatoes
02 Sneaky Snake
03 *Sympathy For The Devil
04 All Apologies > 
05 Cocaine Blues
06 Don't Mess Around With Jim
07 Midnight Moonlight 
08 ?
09 Goin' To California
10 East Bound And Down
11 The Monkey And The Engineer
12 Happy Birthday To Cousin Eddie
13 *You Make Me Feel Like Dancin'
14 Next Time You See Me

Disc II 

01 *Mother's Little Helper
02 Sisters And Brothers
03 Chug-A-Lug
04 *Crazy Song Again
05 *I Like Beer
06 Kodachrome
07 Mississippi Half-Step, Uptown Toodeloo
08 Grandma's Feather Bed
09 On The Road Again
10 Five O'clock World
11 Dang Me
12 Wasn't That A Party
13 Water In The Sky
14 My Back Door 

* First Time Played

This Show Was Also A Birthday Party Celebration Fpr David "Cousin Eddie" Dyche. HAPPY BIRTHDAY ED!!!

Kevin Caslow - Mandolin And Vocals
Brian Welch - Acoustic Guitar And Vocals
John McCoy - Acoustic Guitar And Vocals
Alec Caslow - Bass
Jason Novoselsky -- Acoustic Guitar And Vocals
Jay Paul - Drums

sixfeet2021-08-25d01t01.flac:6162df3c16d05f28cd999d77564fbd8d
sixfeet2021-08-25d01t02.flac:467dfaff424f197392e4381f799a9297
sixfeet2021-08-25d01t03.flac:93e0af6103b18293ca7b2e6bdf1e079f
sixfeet2021-08-25d01t04.flac:9a2f957b8bd0f9ac8dc0464eb9a9a2bf
sixfeet2021-08-25d01t05.flac:387da7f26655e02a0a19f30bd59e88ea
sixfeet2021-08-25d01t06.flac:a0e429b40597251e2e5c9d45f6063909
sixfeet2021-08-25d01t07.flac:b90e862aa08f5731e4dcb33277051c9b
sixfeet2021-08-25d01t08.flac:37fb9969c494991fc62c4127e2eedee2
sixfeet2021-08-25d01t09.flac:6ad936ff06e04c24306d68c8dcdcfb6d
sixfeet2021-08-25d01t10.flac:5624c1741edba690c0a9092e81785e28
sixfeet2021-08-25d01t11.flac:097d4ed69cd60c96dad29858e2cdbbae
sixfeet2021-08-25d01t12.flac:28e6e3f8b8c5a9ba535a03253e8b9412
sixfeet2021-08-25d01t13.flac:268a9f30f6b0adea91037833e1d5273c
sixfeet2021-08-25d01t14.flac:f297b958d0cb01e00c5cb106f1ecbe44
sixfeet2021-08-25d02t01.flac:0e27ed438cc749242fdb0024b15ba15d
sixfeet2021-08-25d02t02.flac:106ddfb7aa56427fd2710b991f522c72
sixfeet2021-08-25d02t03.flac:7808d7bdedb8c5df99e8c77fa7f41ac0
sixfeet2021-08-25d02t04.flac:b0cc8e7092de280b97ed8c7d5db31879
sixfeet2021-08-25d02t05.flac:c16fd68f6cea121c1c58ee87a7ccf827
sixfeet2021-08-25d02t06.flac:5efa41422d991aba043a5b9bef09e169
sixfeet2021-08-25d02t07.flac:fd9e1653630d0ae48dd3ebe4aa2d98cb
sixfeet2021-08-25d02t08.flac:2ee06775e9ed70831d5f8912897bef76
sixfeet2021-08-25d02t09.flac:93c44708d3ace46a307709e8895b80d2
sixfeet2021-08-25d02t10.flac:7fceb88455104b55c1c0899432385e71
sixfeet2021-08-25d02t11.flac:092cfd89ba0395e82e91552bc7ff82c1
sixfeet2021-08-25d02t12.flac:01bdf0d732f728c0b2f4d0e0431be9e0
sixfeet2021-08-25d02t13.flac:d786309bfe4db466ac0b86393e3c9a1a
sixfeet2021-08-25d02t14.flac:1094939975f8edf55649bf577468d45c

 length     expanded size    cdr  WAVE problems  fmt   ratio  filename
     4:24.68       46729580 B   ---   --   ---xx   flac  0.4483  sixfeet2021-08-25d01t01.flac
     2:50.35       30070364 B   ---   --   ---xx   flac  0.4521  sixfeet2021-08-25d01t02.flac
     5:49.01       61565996 B   ---   --   ---xx   flac  0.4681  sixfeet2021-08-25d01t03.flac
     3:22.57       35766908 B   ---   --   ---xx   flac  0.4054  sixfeet2021-08-25d01t04.flac
     3:41.40       39078524 B   ---   --   ---xx   flac  0.4067  sixfeet2021-08-25d01t05.flac
     3:32.59       37535612 B   ---   --   ---xx   flac  0.4829  sixfeet2021-08-25d01t06.flac
     3:51.71       40915436 B   ---   --   ---xx   flac  0.4317  sixfeet2021-08-25d01t07.flac
     3:51.27       40811948 B   ---   --   ---xx   flac  0.4891  sixfeet2021-08-25d01t08.flac
     4:35.24       48566492 B   ---   --   ---xx   flac  0.3913  sixfeet2021-08-25d01t09.flac
     3:07.44       33090332 B   ---   --   ---xx   flac  0.4737  sixfeet2021-08-25d01t10.flac
     2:22.05       25060604 B   ---   --   ---xx   flac  0.4332  sixfeet2021-08-25d01t11.flac
     0:43.42        7684028 B   ---   --   ---xx   flac  0.4430  sixfeet2021-08-25d01t12.flac
     3:55.39       41545772 B   ---   --   ---xx   flac  0.4776  sixfeet2021-08-25d01t13.flac
     4:37.48       48975740 B   ---   --   ---xx   flac  0.4296  sixfeet2021-08-25d01t14.flac
     3:29.36       36952316 B   ---   --   ---xx   flac  0.4301  sixfeet2021-08-25d02t01.flac
     6:03.58       64169660 B   ---   --   ---xx   flac  0.4608  sixfeet2021-08-25d02t02.flac
     2:13.08       23480060 B   ---   --   ---xx   flac  0.4643  sixfeet2021-08-25d02t03.flac
     2:28.57       26241308 B   ---   --   ---xx   flac  0.4631  sixfeet2021-08-25d02t04.flac
     3:43.40       39431324 B   ---   --   ---xx   flac  0.4048  sixfeet2021-08-25d02t05.flac
     3:12.10       33892364 B   ---   --   ---xx   flac  0.5054  sixfeet2021-08-25d02t06.flac
     5:39.65       59952524 B   ---   --   ---xx   flac  0.4707  sixfeet2021-08-25d02t07.flac
     2:26.52       25876748 B   ---   --   ---xx   flac  0.4430  sixfeet2021-08-25d02t08.flac
     3:47.43       40143980 B   ---   --   ---xx   flac  0.4520  sixfeet2021-08-25d02t09.flac
     3:07.45       33092684 B   ---   --   ---xx   flac  0.4688  sixfeet2021-08-25d02t10.flac
     2:19.22       24571388 B   ---   --   ---xx   flac  0.4346  sixfeet2021-08-25d02t11.flac
     3:17.59       34889612 B   ---   --   ---xx   flac  0.4619  sixfeet2021-08-25d02t12.flac
     3:22.03       35639900 B   ---   --   ---xx   flac  0.3961  sixfeet2021-08-25d02t13.flac
     3:30.22       37095788 B   ---   --   ---xx   flac  0.4576  sixfeet2021-08-25d02t14.flac
    99:28.30     1052826992 B                            0.4485  (28 files)




More information about the bittorrent mailing list