[bittorrent] Swami Gone Bananas Swami After Dark Live The Treehouse Theatre Tucker, Georgia 8/22/2021 (Z-Man Schoeps CCM4V'S FOB)

Automated Mailer noreply-bt.e at etree.org
Tue Sep 7 19:15:33 UTC 2021


Band:           Other
Torrent Name:   Swami Gone Bananas Swami After Dark Live The Treehouse Theatre Tucker, Georgia 8/22/2021 (Z-Man Schoeps CCM4V'S FOB)
Uploaded by:    zmanatl
DB Link:        
Details:        http://bt.etree.org/details.php?id=613753

Contact the seeder at http://db.etree.org/zmanatl

If the link to this show does not work, it was probably removed for
being non-trade-friendly.

Description / text file:
-------------------------
Swami Gone Bananas
Swami After Dark Live
The Treehouse Theatre
Tucker, Georgia
8/22/2021 

Source: Schoeps CCM4V'S>Lunatec V2>Sound Devices 722 (24/44.1)
FOB/DFC/KFC/ZFC/AARP 15' From Stage, 6 1/2' High
DSP: Sound Devices 722>Sound Forge 10.0>CD Wave>flac(16)
ID3 Tagged In Foobar 2000
Recorded By: Z-Man
Seeded By: Z-Man
A Team Dirty South Recording

Disc I 

01 Goin' Up The Country 
02 Long Time Gone
03 I Get High With A Little Help From My Friends
04 Comin' In To Los Angeles 
05 Motherless Child
06 Riders On The Storm
07 The Wind Cries Mary
08 They All Asked For You
09 Woodstock
10 Shopping For Clothes 

Disc II 

01 ? >
02 Drum Solo >
03 ?
04 I Can See For Miles
05 I Went To Winder To Find Her, And Tucker To Pray
06 Band Introductions
07 Summertime Blues 
08 I Shall Be Released
09 Bungalo Bill
10 Dire Wolf
11 Wooden Ships
12 Castles Made Of Sand

Michael "Swami" Schulman - Guitar And Vocals
Richard Hurt - Guitar And Vocals
Dave "Deuce And A Quarter" Roth - Bass And Vocals
J R Hawkins - Percussion And Drums
Bobby Andre - Drums

swami2021-08-22d01t01.flac:57ce425ba592724c3f6dc6212d3a5a8b
swami2021-08-22d01t02.flac:fa12a996210ac9d918aac6d0e4eb023f
swami2021-08-22d01t03.flac:e37c4a403e31bb17555ce53a622f8a66
swami2021-08-22d01t04.flac:9d24315730f28797c0dbdec7b2840ee3
swami2021-08-22d01t05.flac:b99159a565692c850ab139cea107b212
swami2021-08-22d01t06.flac:bb77345c5f5846dfbd7ef04225a883c6
swami2021-08-22d01t07.flac:5bd9f80a8cf38a4115c71353ff31e466
swami2021-08-22d01t08.flac:97c05214a1f987bc15f19181398c0557
swami2021-08-22d01t09.flac:1ff15c137b2897ac854310e9a69690cc
swami2021-08-22d01t10.flac:41011b2fbd981bf9345181cc0fb112eb
swami2021-08-22d02t01.flac:734f6edffbda93e9926670ef193cd4f2
swami2021-08-22d02t02.flac:26eb8d00de8711875ffb0784596b1a96
swami2021-08-22d02t03.flac:bc900913039d28cb919c590221aa1797
swami2021-08-22d02t04.flac:8420d73c7aeb5269e7174ac3e677a8b2
swami2021-08-22d02t05.flac:99c4d0f4f28f8a0690c976e0123ccdc8
swami2021-08-22d02t06.flac:dc02787ebfd3327a65c4864e3b793c1e
swami2021-08-22d02t07.flac:5c6260b2abca013f7bef40fa690b1168
swami2021-08-22d02t08.flac:4177bb7b818f1f311926131d1a52b8c5
swami2021-08-22d02t09.flac:3417943ce72e6656b052e98e0878608b
swami2021-08-22d02t10.flac:0e29d78ad696d0badc395fa92c2f242e
swami2021-08-22d02t11.flac:34c4f48c034c51587cacf2e72a70c21b
swami2021-08-22d02t12.flac:78055f2193805e38300b13ed926ef7b4

 length     expanded size    cdr  WAVE problems  fmt   ratio  filename
     5:54.71       62612636 B   ---   --   ---xx   flac  0.4304  swami2021-08-22d01t01.flac
     3:50.28       40637900 B   ---   --   ---xx   flac  0.4518  swami2021-08-22d01t02.flac
     3:19.51       35223596 B   ---   --   ---xx   flac  0.4391  swami2021-08-22d01t03.flac
     4:18.25       45570044 B   ---   --   ---xx   flac  0.4271  swami2021-08-22d01t04.flac
     5:29.64       58186172 B   ---   --   ---xx   flac  0.4430  swami2021-08-22d01t05.flac
     6:45.39       71533772 B   ---   --   ---xx   flac  0.4341  swami2021-08-22d01t06.flac
     4:13.37       44716268 B   ---   --   ---xx   flac  0.4350  swami2021-08-22d01t07.flac
     2:56.25       31105244 B   ---   --   ---xx   flac  0.4295  swami2021-08-22d01t08.flac
     5:18.62       56241068 B   ---   --   ---xx   flac  0.4970  swami2021-08-22d01t09.flac
     5:38.26       59684396 B   ---   --   ---xx   flac  0.3679  swami2021-08-22d01t10.flac
     3:51.11       40774316 B   ---   --   ---xx   flac  0.4995  swami2021-08-22d02t01.flac
     0:22.05        3892604 B   ---   --   ---xx   flac  0.5555  swami2021-08-22d02t02.flac
     4:06.29       43462652 B   ---   --   ---xx   flac  0.5141  swami2021-08-22d02t03.flac
     3:39.20       38678684 B   ---   --   ---xx   flac  0.5036  swami2021-08-22d02t04.flac
     3:37.70       38443484 B   ---   --   ---xx   flac  0.4372  swami2021-08-22d02t05.flac
     1:17.23       13636940 B   ---   --   ---xx   flac  0.3413  swami2021-08-22d02t06.flac
     4:32.36       48065516 B   ---   --   ---xx   flac  0.4731  swami2021-08-22d02t07.flac
     6:26.48       68203340 B   ---   --   ---xx   flac  0.3932  swami2021-08-22d02t08.flac
     3:36.66       38257676 B   ---   --   ---xx   flac  0.4146  swami2021-08-22d02t09.flac
     3:55.27       41517548 B   ---   --   ---xx   flac  0.4261  swami2021-08-22d02t10.flac
     4:53.70       51849884 B   ---   --   ---xx   flac  0.4650  swami2021-08-22d02t11.flac
     4:58.26       52628396 B   ---   --   ---xx   flac  0.4708  swami2021-08-22d02t12.flac
    93:03.34      984922136 B                            0.4443  (22 files)






More information about the bittorrent mailing list