[bittorrent] Phish Dick's Sporting Goods Park Commerce City, Colorado 9/5/2021 (Z-Man Schoeps CCM4V'S FOB)

Automated Mailer noreply-bt.e at etree.org
Mon Sep 6 22:02:26 UTC 2021


Band:           Phish
Torrent Name:   Phish Dick's Sporting Goods Park Commerce City, Colorado 9/5/2021 (Z-Man Schoeps CCM4V'S FOB) 
Uploaded by:    zmanatl
DB Link:        
Details:        http://bt.etree.org/details.php?id=613744

Contact the seeder at http://db.etree.org/zmanatl

If the link to this show does not work, it was probably removed for
being non-trade-friendly.

Description / text file:
-------------------------
Phish
Dick's Sporting Goods Park
Commerce City, Colorado
9/5/2021 

Source: Schoeps CCM4V'S>Lunatec V2>Sound Devices 722 (24/44.1)
FOB/DFC/KFC/ZFC/AARP 95' From Stage, 6 1/2' High
DSP: Sound Devices 722>Sound Forge 10.0>CD Wave>flac(16)
ID3 Tagged In Foobar 2000
Recorded By: Z-Man
Seeded By: Z-Man
A Team Dirty South Recording

Disc I 1st Set

01 The Moma Dance >
02 McGrupp And The Watchful Hosemasters
03 Sand >
04 Sigma Oasis >
05 All Of These Dreams >
06 Reba
07 Bathtub Gin

Disc II 2nd Set

01 Set Your Soul Free >
02 Lonely Trip 
03 Simple >
04 Catapault >
05 Meatstick >
06 Ruby Waves >
07 Bliss >
08 Billy Breathes
09 Most Events Aren’t Planned >
10 Harry Hood
Encore:
11 Trey Banteer
12 More
13 Say it to Me S.A.N.T.O.S.

Trey Anastasio - Guitar And Vocals
Mike Gordon - Bass And Vocals 
Page McConnell - Keyboards And Vocals
John Fishman - Drums And Vocals

phish2021-09-05d01t01.flac:e74693034753d1abc2c1ffa6f0f9b5f1
phish2021-09-05d01t02.flac:0310fc512a7bb4c72127b31cdf33cc79
phish2021-09-05d01t03.flac:8e95e9f77718e0d20b755b704cd05deb
phish2021-09-05d01t04.flac:406cfb1f38466e8d2ab06a99b88fa919
phish2021-09-05d01t05.flac:d96b7bdd90b04c99d0ad130f15f2abcf
phish2021-09-05d01t06.flac:501e4e2137cd885fadd90f386645f9fd
phish2021-09-05d01t07.flac:803e28d94e3041dad5ca7b6e554fb982
phish2021-09-05d02t01.flac:ed0d2eccd2ee623bb914bdb098695ebc
phish2021-09-05d02t02.flac:fab6e0d2c808e5327d13e24a51d43d54
phish2021-09-05d02t03.flac:d375284211b103873632d5a28381af8c
phish2021-09-05d02t04.flac:27aa22cd92458105f4f143d89b2ca38a
phish2021-09-05d02t05.flac:4239d3ad1b3a570ee4efc6221c11c7a6
phish2021-09-05d02t06.flac:8145634ffbfb97b896b17ac967f81e77
phish2021-09-05d02t07.flac:2758a55a160b56d411365ed71075468d
phish2021-09-05d02t08.flac:68de68dab5b8807858b702b8d04e5d41
phish2021-09-05d02t09.flac:a199bfe0674fe9323a3d188fbf0b96cf
phish2021-09-05d02t10.flac:befa5f79e0a74c4257271237befaf901
phish2021-09-05d02t11.flac:834f08eb296608562ef1572448af08a5
phish2021-09-05d02t12.flac:eb3510171dd2a319a4f43b28bd57d742
phish2021-09-05d02t13.flac:7ed57a25ca80f1822f9fb946ac85fc7b

 length     expanded size    cdr  WAVE problems  fmt   ratio  filename
     8:47.24       93019292 B   ---   --   ---xx   flac  0.4854  phish2021-09-05d01t01.flac
     8:33.73       90664940 B   ---   --   ---xx   flac  0.4588  phish2021-09-05d01t02.flac
    13:54.21      147167036 B   ---   --   ---xx   flac  0.4903  phish2021-09-05d01t03.flac
    15:05.67      159799628 B   ---   --   ---xx   flac  0.4883  phish2021-09-05d01t04.flac
     3:47.42       40141628 B   ---   --   ---xx   flac  0.4099  phish2021-09-05d01t05.flac
    11:33.17      122285228 B   ---   --   ---xx   flac  0.4582  phish2021-09-05d01t06.flac
    14:26.73      152934140 B   ---   --   ---xx   flac  0.4892  phish2021-09-05d01t07.flac
    19:07.21      202380236 B   ---   --   ---xx   flac  0.4884  phish2021-09-05d02t01.flac
     6:07.11       64764716 B   ---   --   ---xx   flac  0.3850  phish2021-09-05d02t02.flac
     8:06.33       85808060 B   ---   --   ---xx   flac  0.4942  phish2021-09-05d02t03.flac
     6:44.10       71289164 B   ---   --   ---xx   flac  0.4893  phish2021-09-05d02t04.flac
     8:49.05       93327404 B   ---   --   ---xx   flac  0.5001  phish2021-09-05d02t05.flac
    12:03.41      127633676 B   ---   --   ---xx   flac  0.5110  phish2021-09-05d02t06.flac
     0:59.70       10572284 B   ---   --   ---xx   flac  0.3226  phish2021-09-05d02t07.flac
     5:15.64       55716572 B   ---   --   ---xx   flac  0.4449  phish2021-09-05d02t08.flac
     8:09.24       86316092 B   ---   --   ---xx   flac  0.5070  phish2021-09-05d02t09.flac
    11:25.35      120916364 B   ---   --   ---xx   flac  0.4842  phish2021-09-05d02t10.flac
     0:22.34        3960812 B   ---   --   ---xx   flac  0.3716  phish2021-09-05d02t11.flac
     5:55.73       62793740 B   ---   --   ---xx   flac  0.5030  phish2021-09-05d02t12.flac
     5:51.71       62083436 B   ---   --   ---xx   flac  0.5218  phish2021-09-05d02t13.flac
   175:07.59     1853574448 B                            0.4819  (20 files)







More information about the bittorrent mailing list