[bittorrent] Phish Dick's Sporting Goods Park Commerce City, Colorado 9/4/2021 (Z-Man Schoeps CCM4V'S FOB)

Automated Mailer noreply-bt.e at etree.org
Sun Sep 5 08:22:49 UTC 2021


Band:           Phish
Torrent Name:   Phish Dick's Sporting Goods Park Commerce City, Colorado 9/4/2021 (Z-Man Schoeps CCM4V'S FOB)
Uploaded by:    zmanatl
DB Link:        
Details:        http://bt.etree.org/details.php?id=613717

Contact the seeder at http://db.etree.org/zmanatl

If the link to this show does not work, it was probably removed for
being non-trade-friendly.

Description / text file:
-------------------------
Phish
Dick's Sporting Goods Park
Commerce City, Colorado
9/4/2021 

Source: Schoeps CCM4V'S>Lunatec V2>Sound Devices 722 (24/44.1)
FOB/DFC/KFC/ZFC/AARP 90' From Stage, 6 1/2' High
DSP: Sound Devices 722>Sound Forge 10.0>CD Wave>flac(16)
ID3 Tagged In Foobar 2000
Recorded By: Z-Man
Seeded By: Z-Man
A Team Dirty South Recording

Disc I 1st Set

01 Alumni Blues >
02 Letter To Jimmy Page >
03 Alumni Blues
04 Turtle In The Clouds
05 Blaze On 
06 Cool It Down >
07 Ghost >
08 Ya Mar >
09 Undermind
10 Tube >
11 David Bowie

Disc II 2nd Set

01 Everything's Right >
02 Fuego >
03 Farmhouse >
04 Mercury >
05 Seven Below
06 Drift While You're Sleeping
07 You Enjoy Myself 
Encore: 
08 Bold As Love

* With Ryan Sibert Doing The Z-Man Tag On 1st Set

Trey Anastasio - Guitar And Vocals
Mike Gordon - Bass And Vocals 
Page McConnell - Keyboards And Vocals
John Fishman - Drums And Vocals

phish2021-09-04d01t01.flac:7564f4e6b35f7aa9d498b797396c6ea7
phish2021-09-04d01t02.flac:8aca8a72ffb6c92e7fb196e36be13105
phish2021-09-04d01t03.flac:b9c3f1ea1eb74303e72b7729847da852
phish2021-09-04d01t04.flac:14332d3fabfa9847ffb9adc9ca7e9ecb
phish2021-09-04d01t05.flac:15c8652e2ea33f790f2effee04a8efd3
phish2021-09-04d01t06.flac:ba664b2a3fcb3cc7105bf573330fc321
phish2021-09-04d01t07.flac:e6c275dd2fc3c7836b7db888d0cb10b1
phish2021-09-04d01t08.flac:6441fcec05989a9cd5ace1fa3bf98fa5
phish2021-09-04d01t09.flac:8172604c64c53ae0cb5c9e775d340f79
phish2021-09-04d01t10.flac:ff8911a759afeec39e03e815fed332af
phish2021-09-04d01t11.flac:2ae9c7710565aa489df09b8f3ae7b060
phish2021-09-04d02t01.flac:ded08c9505cf52fc684f029c729c0864
phish2021-09-04d02t02.flac:93a75183b6d7ab0db10656ea8220ac7a
phish2021-09-04d02t03.flac:88be5226214adf7ceb7f03a908fdaec3
phish2021-09-04d02t04.flac:045ccc6358603bf4c9cb7d7e78ec6c1c
phish2021-09-04d02t05.flac:690e02f16184eb75c515eddb86ae9ea0
phish2021-09-04d02t06.flac:c29cf26e48077a190a0dac9eb33409e0
phish2021-09-04d02t07.flac:7055a25d4ad57439c1b9e8cb96832ea6
phish2021-09-04d02t08.flac:360fea73546dc35f424e872cb83befa3

  length     expanded size    cdr  WAVE problems  fmt   ratio  filename
     4:36.35       48768764 B   ---   --   ---xx   flac  0.4626  phish2021-09-04d01t01.flac
     2:00.25       21226844 B   ---   --   ---xx   flac  0.4857  phish2021-09-04d01t02.flac
     0:59.45       10513484 B   ---   --   ---xx   flac  0.4465  phish2021-09-04d01t03.flac
     7:08.24       75555692 B   ---   --   ---xx   flac  0.5003  phish2021-09-04d01t04.flac
    15:26.63      163494620 B   ---   --   ---xx   flac  0.5042  phish2021-09-04d01t05.flac
     4:35.73       48681740 B   ---   --   ---xx   flac  0.4792  phish2021-09-04d01t06.flac
    12:31.45      132582284 B   ---   --   ---xx   flac  0.5221  phish2021-09-04d01t07.flac
     6:28.30       68513804 B   ---   --   ---xx   flac  0.5132  phish2021-09-04d01t08.flac
     8:50.53       93616700 B   ---   --   ---xx   flac  0.4995  phish2021-09-04d01t09.flac
     9:48.74      103897292 B   ---   --   ---xx   flac  0.5099  phish2021-09-04d01t10.flac
    12:30.53      132424700 B   ---   --   ---xx   flac  0.4980  phish2021-09-04d01t11.flac
    25:00.38      264689420 B   ---   --   ---xx   flac  0.5016  phish2021-09-04d02t01.flac
    10:32.24      111541292 B   ---   --   ---xx   flac  0.4963  phish2021-09-04d02t02.flac
     6:01.65       63833324 B   ---   --   ---xx   flac  0.4267  phish2021-09-04d02t03.flac
    11:12.41      118637276 B   ---   --   ---xx   flac  0.4832  phish2021-09-04d02t04.flac
     7:58.48       84432140 B   ---   --   ---xx   flac  0.4858  phish2021-09-04d02t05.flac
    12:01.25      127243244 B   ---   --   ---xx   flac  0.4901  phish2021-09-04d02t06.flac
    19:14.35      203647964 B   ---   --   ---xx   flac  0.4549  phish2021-09-04d02t07.flac
     6:56.00       73382444 B   ---   --   ---xx   flac  0.4855  phish2021-09-04d02t08.flac
   183:55.46     1946683028 B                            0.4908  (19 files)







More information about the bittorrent mailing list