[bittorrent] Phish Dick's Sporting Goods Park Commerce City, Colorado 9/3/2021 (Z-Man Schoeps CCM4V'S FOB)

Automated Mailer noreply-bt.e at etree.org
Sat Sep 4 07:57:03 UTC 2021


Band:           Phish
Torrent Name:   Phish Dick's Sporting Goods Park Commerce City, Colorado 9/3/2021 (Z-Man Schoeps CCM4V'S FOB)
Uploaded by:    zmanatl
DB Link:        
Details:        http://bt.etree.org/details.php?id=613700

Contact the seeder at http://db.etree.org/zmanatl

If the link to this show does not work, it was probably removed for
being non-trade-friendly.

Description / text file:
-------------------------
Phish
Dick's Sporting Goods Park
Commerce City, Colorado
9/3/2021 

Source: Schoeps CCM4V'S>Lunatec V2>Sound Devices 722 (24/44.1)
FOB/DFC/KFC/ZFC/AARP 95' From Stage, 6' High
DSP: Sound Devices 722>Sound Forge 10.0>CD Wave>flac(16)
ID3 Tagged In Foobar 2000
Recorded By: Z-Man
Seeded By: Z-Man
A Team Dirty South Recording

Disc I 1st Set

01 46 Days
02 Party Time
03 Steam
04 Timber (Jerry The Mule)
05 Yarmouth Road
06 Foam 
07 Vultures 
08 Trey Banter On 10th Anniversary Of Shows At Dick's 
09 Pebbles And Marbles 
10 Carini

Disc II 2nd Set

01 Rise/Come Together >
02 A Song I Heard The Ocean Sing >
03 Chalk Dust Torture >
04 Beneathe A Sea Of Stars Part I >
05 Light >
06 *Plasma >
07 #Runaway Jim >
08 Slave To The Traffic Light 
Encore:
09 Cavern >
10 Waste >
11 Good Times, Bad Times

* With Party Time And Chalk Dust Torture Lyrics Mixed In
# With A 4 1/2 Second Stop In The Middle

Trey Anastasio - Guitar And Vocals
Mike Gordon - Bass And Vocals 
Page McConnell - Keyboards And Vocals
John Fishman - Drums And Vocals

phish2021-09-03d01t01.flac:50cd010cb72ba38b975047b2b6d74f36
phish2021-09-03d01t02.flac:ff3c53c4f487604c5026a024461984c7
phish2021-09-03d01t03.flac:efa44049de07313f0b0ceb44ef2abd21
phish2021-09-03d01t04.flac:b691ddda4e128e880b0e9cd9a20d652b
phish2021-09-03d01t05.flac:1507418aca6e27e2e3af3045e5f8a889
phish2021-09-03d01t06.flac:d9b21ef52b4586bde5c77db129502178
phish2021-09-03d01t07.flac:10b13e3688f1730283773e1ddcd33885
phish2021-09-03d01t08.flac:3d50336c81a3cd932147f2139e1a400e
phish2021-09-03d01t09.flac:d52c7fe7467b6c62db5e1b6b52efb0d9
phish2021-09-03d01t10.flac:644e67c4f6f87ccb82e45312f89d5b44
phish2021-09-03d02t01.flac:bfa79a23084b303e95a50ad3ec3cb325
phish2021-09-03d02t02.flac:e0ef5b7e14be44b6a27a3e3bdf21414a
phish2021-09-03d02t03.flac:66b335a9ffae5feb3c056e1562ecf22f
phish2021-09-03d02t04.flac:1fd798f786052c6fe32818d488ac4770
phish2021-09-03d02t05.flac:95bba1c7a23061a6d0175a5d3fb4c5fe
phish2021-09-03d02t06.flac:75262cfb16f0956837f034cc6818b8e3
phish2021-09-03d02t07.flac:3679437ae697094b38f31a16d726166b
phish2021-09-03d02t08.flac:2e811b51c44a1652ca8f893b78520728
phish2021-09-03d02t09.flac:d5e44585f9682653607690334e914a72
phish2021-09-03d02t10.flac:b5c6b98be0fa961ec5fbf9503b44bacd
phish2021-09-03d02t11.flac:207877b8e119abc8cd3145221f12948d

  length     expanded size    cdr  WAVE problems  fmt   ratio  filename
     8:17.36       87755516 B   ---   --   ---xx   flac  0.5405  phish2021-09-03d01t01.flac
     8:38.37       91462268 B   ---   --   ---xx   flac  0.5079  phish2021-09-03d01t02.flac
     8:31.01       90142796 B   ---   --   ---xx   flac  0.5218  phish2021-09-03d01t03.flac
     7:26.00       78674444 B   ---   --   ---xx   flac  0.4930  phish2021-09-03d01t04.flac
     6:37.64       70181372 B   ---   --   ---xx   flac  0.5102  phish2021-09-03d01t05.flac
     8:15.63       87466220 B   ---   --   ---xx   flac  0.4958  phish2021-09-03d01t06.flac
     7:14.62       76703468 B   ---   --   ---xx   flac  0.5140  phish2021-09-03d01t07.flac
     1:50.35       19486364 B   ---   --   ---xx   flac  0.4153  phish2021-09-03d01t08.flac
     8:35.35       90928364 B   ---   --   ---xx   flac  0.5109  phish2021-09-03d01t09.flac
    22:40.64      240054572 B   ---   --   ---xx   flac  0.5444  phish2021-09-03d01t10.flac
     4:26.00       46922444 B   ---   --   ---xx   flac  0.5071  phish2021-09-03d02t01.flac
     7:56.17       84006428 B   ---   --   ---xx   flac  0.5208  phish2021-09-03d02t02.flac
    20:22.66      215716076 B   ---   --   ---xx   flac  0.4940  phish2021-09-03d02t03.flac
    10:27.58      110739260 B   ---   --   ---xx   flac  0.4327  phish2021-09-03d02t04.flac
     8:32.03       90323900 B   ---   --   ---xx   flac  0.4979  phish2021-09-03d02t05.flac
     5:39.17       59839628 B   ---   --   ---xx   flac  0.4972  phish2021-09-03d02t06.flac
     7:19.44       77543132 B   ---   --   ---xx   flac  0.5099  phish2021-09-03d02t07.flac
    11:28.20      121410284 B   ---   --   ---xx   flac  0.4754  phish2021-09-03d02t08.flac
     4:39.08       49234460 B   ---   --   ---xx   flac  0.5199  phish2021-09-03d02t09.flac
     5:35.32       59169308 B   ---   --   ---xx   flac  0.4461  phish2021-09-03d02t10.flac
     6:35.56       69809756 B   ---   --   ---xx   flac  0.5381  phish2021-09-03d02t11.flac
   181:10.43     1917570060 B                            0.5043  (21 files)





More information about the bittorrent mailing list