[bittorrent] Spafford Sculpture Park Denver, Colorado 9/2/2021 (Z-Man Schoeps CCM4V'S FOB)

Automated Mailer noreply-bt.e at etree.org
Fri Sep 3 17:13:11 UTC 2021


Band:           Spafford
Torrent Name:   Spafford Sculpture Park  Denver, Colorado 9/2/2021 (Z-Man Schoeps CCM4V'S FOB)
Uploaded by:    zmanatl
DB Link:        
Details:        http://bt.etree.org/details.php?id=613683

Contact the seeder at http://db.etree.org/zmanatl

If the link to this show does not work, it was probably removed for
being non-trade-friendly.

Description / text file:
-------------------------
Spafford
Sculpture Park 
Denver, Colorado
9/2/2021 

Source: Schoeps CCM4V'S>Lunatec V2>Sound Devices 722 (24/44.1)
FOB/DFC/KFC/ZFC/AARP 75' From Stage, 7' High
DSP: Sound Devices 722>Sound Forge 10.0>CD Wave>flac(16)
ID3 Tagged In Foobar 2000
Recorded By: Z-Man
Seeded By: Z-Man
A Team Dirty South Recording

Disc I 1st Set

01 Intro Music/Greeting
02 Take Your Mama
03 Lovesick Melody >
04 Soil
05 Comfortable >
06 Minds Unchained
07 Giants In The Light

Disc II 2nd Set

01 Lonely 
02 Happy Birthday Jordan
03 Pursuit Of Madness >
04 Down Under
05 Plans >
06 Dis Go In 5? >
07 Plans

Brian Moss - Guitar And Vocals
Jordan Fairless - Bass And Vocals 
Andrew "Red" Johnson - Keyboards And Vocals
Nick Tkachyk - Drums 

spafford2021-09-02d01t01.flac:d99735f56903961889d0e68a552aceec
spafford2021-09-02d01t02.flac:763c1ece2caec79bdda999d0e89a95c8
spafford2021-09-02d01t03.flac:709823e485dd5ba7ff43f618e6aa7eb2
spafford2021-09-02d01t04.flac:6348dd19f164d1cf8f959a8564bf9bc2
spafford2021-09-02d01t05.flac:cb382679f2fb4cd93204b618493f3b10
spafford2021-09-02d01t06.flac:136d37a4548d03980f0852131c513c48
spafford2021-09-02d01t07.flac:41f650c927251cc30f2b58a960acd744
spafford2021-09-02d02t01.flac:0758abbb3d153ddeee71576f2a692dba
spafford2021-09-02d02t02.flac:921996b3cc06473e3d2860330accb887
spafford2021-09-02d02t03.flac:56f7fa3f67f2fe63a9b9dfb61bc0d6ce
spafford2021-09-02d02t04.flac:1f776b66c07eb4d5043f1e3f371fc659
spafford2021-09-02d02t05.flac:24af6b5010aefead44b3b40fe9b13de0
spafford2021-09-02d02t06.flac:06d14afdc6aadc9ce0a856dd72b3d21c
spafford2021-09-02d02t07.flac:d2812b220c9ea3731e44575c4389e160

  length     expanded size    cdr  WAVE problems  fmt   ratio  filename
     1:56.40       20556524 B   ---   --   ---xx   flac  0.4196  spafford2021-09-02d01t01.flac
     5:28.19       57903932 B   ---   --   ---xx   flac  0.4620  spafford2021-09-02d01t02.flac
     6:48.74       72145292 B   ---   --   ---xx   flac  0.4733  spafford2021-09-02d01t03.flac
    10:52.58      115149260 B   ---   --   ---xx   flac  0.4523  spafford2021-09-02d01t04.flac
    23:47.44      251826332 B   ---   --   ---xx   flac  0.4743  spafford2021-09-02d01t05.flac
    21:00.36      222348716 B   ---   --   ---xx   flac  0.4473  spafford2021-09-02d01t06.flac
     5:08.72       54500588 B   ---   --   ---xx   flac  0.5105  spafford2021-09-02d01t07.flac
    15:52.00      167932844 B   ---   --   ---xx   flac  0.5237  spafford2021-09-02d02t01.flac
     1:11.60       12665564 B   ---   --   ---xx   flac  0.3554  spafford2021-09-02d02t02.flac
    20:17.51      214798796 B   ---   --   ---xx   flac  0.4790  spafford2021-09-02d02t03.flac
     8:10.28       86501900 B   ---   --   ---xx   flac  0.5110  spafford2021-09-02d02t04.flac
    13:23.74      141823292 B   ---   --   ---xx   flac  0.4779  spafford2021-09-02d02t05.flac
     6:56.13       73413020 B   ---   --   ---xx   flac  0.5087  spafford2021-09-02d02t06.flac
     9:40.29      102380252 B   ---   --   ---xx   flac  0.4605  spafford2021-09-02d02t07.flac
   150:35.73     1593946312 B                            0.4769  (14 files)





More information about the bittorrent mailing list