[bittorrent] Phish Shoreline Amphitheatre Mountain View, California 9/1/2021 (Z-Man Schoeps CCM4V'S)

Automated Mailer noreply-bt.e at etree.org
Thu Sep 2 09:44:32 UTC 2021


Band:           Phish
Torrent Name:   Phish Shoreline Amphitheatre Mountain View, California 9/1/2021 (Z-Man Schoeps CCM4V'S) 
Uploaded by:    zmanatl
DB Link:        
Details:        http://bt.etree.org/details.php?id=613665

Contact the seeder at http://db.etree.org/zmanatl

If the link to this show does not work, it was probably removed for
being non-trade-friendly.

Description / text file:
-------------------------
Phish
Shoreline Amphitheatre
Mountain View, California
9/1/2021 

Source: Schoeps CCM4V'S>Lunatec V2>Sound Devices 722 (24/44.1)
BOB/DFC/KFC/ZFC/AARP Section 202, Row D, Seat 23, 6 1/2' High
DSP: Sound Devices 722>Sound Forge 10.0>CD Wave>flac(16)
ID3 Tagged In Foobar 2000
Recorded By: Z-Man
Seeded By: Z-Man
A Team Dirty South Recording

Disc I 1st Set

01 Mike's Song >
02 The Man Who Stepped Into Into Yesterday >
03 Avenu Malkenu >
04 Weekapaug Groove 
05 Brian And Robert
06 Thread 
07 The Wedge >
08 Cities >
09 Passing Through >
10 Fluffhead 

Disc II 2nd Set

01 The Lizards >
02 Tweezer >
03 Miss You >
04 Piper >
05 Twenty Years Later
06 Twist >
07 Backwards Down The Number Line
Encore:
08 Life Beyond A Dream
09 Tweezer Reprise 

Trey Anastasio - Guitar And Vocals
Mike Gordon - Bass And Vocals 
Page McConnell - Keyboards And Vocals
John Fishman - Drums And Vocals

phish2021-09-01d01t01.flac:6693732efd3b9b7a3a1b9b1dc9a23167
phish2021-09-01d01t02.flac:5caeb10503aa75fa5d2f06fef3b33723
phish2021-09-01d01t03.flac:17a0e5d39f5de15ec8da4362972a0391
phish2021-09-01d01t04.flac:5c29362dc927fbb53beef0a5263f6d56
phish2021-09-01d01t05.flac:c017a9a1dac54fa4f28ec19c715e4179
phish2021-09-01d01t06.flac:4b56c3f4de6a0a4b6ff0a48b57c82a6a
phish2021-09-01d01t07.flac:b1a86dddd73459034366b792ffd5f55f
phish2021-09-01d01t08.flac:2e04b5633d77a363d40f72332c1615d5
phish2021-09-01d01t09.flac:e0a51fde58e5ed29c7228fb0d9961783
phish2021-09-01d01t10.flac:5b0ea6986e0edd210eda5364fb0da7b8
phish2021-09-01d02t01.flac:247d704b781f9afd244c1dfdd2c51c37
phish2021-09-01d02t02.flac:b6f7b21b4fa0f9222ec5910bd5ef663a
phish2021-09-01d02t03.flac:113db5295f96bbfaa7f2296d37be0444
phish2021-09-01d02t04.flac:ac24c45867d30c8cf160b163e1b4a7f6
phish2021-09-01d02t05.flac:43d482e06ad24673ea53fcd5b298fbe2
phish2021-09-01d02t06.flac:231622fe66806ca83afaa8ad7201b232
phish2021-09-01d02t07.flac:059aa9d19764811fc964dd59ab2b5515
phish2021-09-01d02t08.flac:786eb617f6b3f318320ef4e331bfa61c
phish2021-09-01d02t09.flac:dbb462aa061290ff5687af96dd5162ca

  length     expanded size    cdr  WAVE problems  fmt   ratio  filename
    11:05.74      117480092 B   ---   --   ---xx   flac  0.5087  phish2021-09-01d01t01.flac
     3:46.10       39889964 B   ---   --   ---xx   flac  0.4053  phish2021-09-01d01t02.flac
     3:23.12       35837468 B   ---   --   ---xx   flac  0.4819  phish2021-09-01d01t03.flac
     9:06.39       96406172 B   ---   --   ---xx   flac  0.4918  phish2021-09-01d01t04.flac
     4:12.08       44471660 B   ---   --   ---xx   flac  0.4141  phish2021-09-01d01t05.flac
     9:38.13      101989820 B   ---   --   ---xx   flac  0.4851  phish2021-09-01d01t06.flac
     6:54.43       73130780 B   ---   --   ---xx   flac  0.4989  phish2021-09-01d01t07.flac
    16:23.36      173485916 B   ---   --   ---xx   flac  0.5054  phish2021-09-01d01t08.flac
     5:41.49       60267692 B   ---   --   ---xx   flac  0.5009  phish2021-09-01d01t09.flac
    15:59.59      169306412 B   ---   --   ---xx   flac  0.4854  phish2021-09-01d01t10.flac
    10:25.72      110419388 B   ---   --   ---xx   flac  0.4822  phish2021-09-01d02t01.flac
    34:00.63      360004220 B   ---   --   ---xx   flac  0.5096  phish2021-09-01d02t02.flac
     6:35.72       69847388 B   ---   --   ---xx   flac  0.4590  phish2021-09-01d02t03.flac
    10:35.45      112119884 B   ---   --   ---xx   flac  0.5258  phish2021-09-01d02t04.flac
     7:44.71       82016636 B   ---   --   ---xx   flac  0.4991  phish2021-09-01d02t05.flac
     8:11.37       86699468 B   ---   --   ---xx   flac  0.4728  phish2021-09-01d02t06.flac
     8:19.69       88185932 B   ---   --   ---xx   flac  0.5082  phish2021-09-01d02t07.flac
     7:44.51       81969596 B   ---   --   ---xx   flac  0.4695  phish2021-09-01d02t08.flac
     3:24.38       36075020 B   ---   --   ---xx   flac  0.4945  phish2021-09-01d02t09.flac
   183:15.36     1939603508 B                            0.4928  (19 files)






More information about the bittorrent mailing list