[bittorrent] Phish Shoreline Amphitheatre Mountain View, California 8/31/2021 (Z-Man Schoeps CCM4V'S)

Automated Mailer noreply-bt.e at etree.org
Wed Sep 1 09:02:48 UTC 2021


Band:           Phish
Torrent Name:   Phish Shoreline Amphitheatre Mountain View, California 8/31/2021 (Z-Man Schoeps CCM4V'S)
Uploaded by:    zmanatl
DB Link:        
Details:        http://bt.etree.org/details.php?id=613654

Contact the seeder at http://db.etree.org/zmanatl

If the link to this show does not work, it was probably removed for
being non-trade-friendly.

Description / text file:
-------------------------
Phish
Shoreline Amphitheatre
Mountain View, California
8/31/2021 

Source: Schoeps CCM4V'S>Lunatec V2>Sound Devices 722 (24/44.1)
BOB/DFC/KFC/ZFC/AARP Section 202, Row D, Seat 23, 6 1/2' High
DSP: Sound Devices 722>Sound Forge 10.0>CD Wave>flac(16)
ID3 Tagged In Foobar 2000
Recorded By: Z-Man
Seeded By: Z-Man
A Team Dirty South Recording

Disc I 1st Set

01 Glide
02 Colonel Forbin's Ascent >
03 Fly Famous Mockingbird
04 Trey Banter
05 Wolfman's Brother
06 If I Could
07 I Never Needed You This Bad
08 Stash
09 Weigh
10 Bouncin' Around The Room >
11 Gotta Jibboo
12 Moonage Daydream

Disc II 2nd Set

01 Soul Planet >
02 The Final Hurrah >
03 Theme From The Bottom 
04 Axilla (Part II) 
05 Tela >
06 Harry Hood
Encore:
07 *Fee 
08 Wilson 

* With Trey On Megaphone

Trey Anastasio - Guitar And Vocals
Mike Gordon - Bass And Vocals 
Page McConnell - Keyboards And Vocals
John Fishman - Drums And Vocals

phish2021-08-31d01t01.flac:32c5e5709635bc384497d5dfbadc2d18
phish2021-08-31d01t02.flac:60f2e27d5bb93df24d887156f3ffb7b2
phish2021-08-31d01t03.flac:ef9d9c225b91ba30acb253ddf941f161
phish2021-08-31d01t04.flac:47a27078ad0ddfe39307c7bb07fa7d05
phish2021-08-31d01t05.flac:a8d05ffff2bd344dacd7e8e21622d2b7
phish2021-08-31d01t06.flac:9f2162e6fdb4c7f0775869f400879f5c
phish2021-08-31d01t07.flac:28a8be78aa288bdb36d24f3d3801c1ac
phish2021-08-31d01t08.flac:3e7bbc7103a972cc740adc284c07adf0
phish2021-08-31d01t09.flac:57984f412e0cb50d46565bb11b9db2c5
phish2021-08-31d01t10.flac:715edcf4dea672b7a64585fb7be65c11
phish2021-08-31d01t11.flac:4108d4bb286a71241ff75a9ed24344e6
phish2021-08-31d01t12.flac:29960e7ada4a05f15c1e7554617b9540
phish2021-08-31d02t01.flac:0c649e0e62dc2776ab79e27c6cbcaad3
phish2021-08-31d02t02.flac:d7e86c8eb3277c16e220a476d2c0a77a
phish2021-08-31d02t03.flac:e0b908a7a3c86c6f7fbc91f804fa46a1
phish2021-08-31d02t04.flac:447d6abab4c4ef4685b7076b38e4f240
phish2021-08-31d02t05.flac:03d343ff1fa50bc4f467bb0defbf5dea
phish2021-08-31d02t06.flac:3f8c082ea5479d9f7734d1d947748756
phish2021-08-31d02t07.flac:9aaf565e8bb9b71316b8698bf72e9aa7
phish2021-08-31d02t08.flac:04b97cda549878f73d8363ec32097c28

 length     expanded size    cdr  WAVE problems  fmt   ratio  filename
     4:26.55       47051804 B   ---   --   ---xx   flac  0.4371  phish2021-08-31d01t01.flac
     7:47.27       82442348 B   ---   --   ---xx   flac  0.4817  phish2021-08-31d01t02.flac
     6:07.37       64825868 B   ---   --   ---xx   flac  0.4699  phish2021-08-31d01t03.flac
     1:17.11       13608716 B   ---   --   ---xx   flac  0.4134  phish2021-08-31d01t04.flac
    11:31.16      121930076 B   ---   --   ---xx   flac  0.4949  phish2021-08-31d01t05.flac
     7:18.39       77354972 B   ---   --   ---xx   flac  0.4275  phish2021-08-31d01t06.flac
     6:20.64       67182572 B   ---   --   ---xx   flac  0.5184  phish2021-08-31d01t07.flac
    17:51.13      188955020 B   ---   --   ---xx   flac  0.4627  phish2021-08-31d01t08.flac
     5:31.26       58449596 B   ---   --   ---xx   flac  0.4671  phish2021-08-31d01t09.flac
     3:25.31       36234956 B   ---   --   ---xx   flac  0.4635  phish2021-08-31d01t10.flac
     7:46.25       82261244 B   ---   --   ---xx   flac  0.4830  phish2021-08-31d01t11.flac
     8:00.00       84672044 B   ---   --   ---xx   flac  0.5103  phish2021-08-31d01t12.flac
    46:49.68      495667580 B   ---   --   ---xx   flac  0.4955  phish2021-08-31d02t01.flac
     8:23.46       88837436 B   ---   --   ---xx   flac  0.4794  phish2021-08-31d02t02.flac
     8:33.20       90540284 B   ---   --   ---xx   flac  0.4599  phish2021-08-31d02t03.flac
     4:24.33       46647260 B   ---   --   ---xx   flac  0.5031  phish2021-08-31d02t04.flac
     6:52.57       72810908 B   ---   --   ---xx   flac  0.4369  phish2021-08-31d02t05.flac
    14:21.23      151934540 B   ---   --   ---xx   flac  0.4545  phish2021-08-31d02t06.flac
     5:26.19       57551132 B   ---   --   ---xx   flac  0.4311  phish2021-08-31d02t07.flac
     5:42.52       60451148 B   ---   --   ---xx   flac  0.4758  phish2021-08-31d02t08.flac
   187:57.62     1989409504 B                            0.4759  (20 files)






More information about the bittorrent mailing list