[bittorrent] Widespread Panic UNO Lakefront Arena New Orleans, Louisiana 10/30/2021 (Z-Man Schoeps CCM4V'S)

Automated Mailer noreply-bt.e at etree.org
Sun Oct 31 07:02:09 UTC 2021


Band:           Widespread Panic
Torrent Name:   Widespread Panic UNO Lakefront Arena New Orleans, Louisiana 10/30/2021 (Z-Man Schoeps CCM4V'S)
Uploaded by:    zmanatl
DB Link:        
Details:        http://bt.etree.org/details.php?id=614314

Contact the seeder at http://db.etree.org/zmanatl

If the link to this show does not work, it was probably removed for
being non-trade-friendly.

Description / text file:
-------------------------
Widespread Panic
UNO Lakefront Arena
New Orleans, Louisiana
10/30/2021 

Source: Schoeps CCM4V'S>Lunatec V2>Sound Devices 722 (24/44.1)
BOB/DFC/KFC/ZFC/AARP Clamped To The Rail, Front Of Upper Level, 6 1/2' High
DSP: Sound Devices 722>Sound Forge 10.0>CD Wave>flac(16)
ID3 Tagged In Foobar 2000
Recorded By: Z-Man
Seeded By: Z-Man
A Team Dirty South Recording

Disc I 1st Set

01 Warewolves Of London >
02 Henry Parsons Died
03 Big Wooly Mammoth 
04 Aunt Avis >
05 Greta >
06 Second Skin >
07 Rebirtha >
08 Action Man

Disc II 2nd Set

01 Airplane >
02 Take-Off Jam >
03 Pusherman >
04 Arlene 
05 Papa's Home >
06 Disco >
07 Papa's Home
08 *Jack > 
09 Chilly Water >
10 Love Tractor >
11 Chilly Water >
12 Youn Wreck Me

Disc III Encore

01 City Of Dreams >
02 #Such A Night >
03 Ain't Life Grand

* Braves Win Game 4 Of World Series
# First Time Played By Widespread Panic (I recorded Jojo when he played it solo on 5/14/2021)

John "JB" Bell - Guitar And Vocals
Jimmy Herring - Guitar
Dave Schools - Bass And Vocals
John "JoJo" Hermann - Keyboards And Vocals
Domingo "Sunny" Ortiz - Percussion
Duane Trucks - Drums

wsp2021-10-30d01t01.flac:8e2f5d4461b16a5f0f7a0a51162fdc8d
wsp2021-10-30d01t02.flac:311cd399de172a8b3875d0d74a4a22b1
wsp2021-10-30d01t03.flac:9869c08089f3b7ab779ac5bbb4594d48
wsp2021-10-30d01t04.flac:406e8c095ccb85fb1aaa2947a241b66f
wsp2021-10-30d01t05.flac:51f94b0923808aac7157149ec4aa368f
wsp2021-10-30d01t06.flac:352dfd5c0a7259b94099d6e572abeac2
wsp2021-10-30d01t07.flac:36a5a156ddef740018bd8c6b7dc8bbed
wsp2021-10-30d01t08.flac:dd4f2f0e9a9eb1fce041d1974a25bc2e
wsp2021-10-30d02t01.flac:3623ff2ef66761e0fba2b77f6a2deea3
wsp2021-10-30d02t02.flac:9bcbe8e98288e2a86988397f1502ad0c
wsp2021-10-30d02t03.flac:8169113823a1d2c6d74f04c33913c65c
wsp2021-10-30d02t04.flac:c3499a936042b91021ab3df2b10d7e36
wsp2021-10-30d02t05.flac:d8e15442f4807a628c41c55b8e8fca4b
wsp2021-10-30d02t06.flac:3addb380ec0d1653bf020167be017e45
wsp2021-10-30d02t07.flac:5185f2376e7da5a58c6c0c8b2272cfb2
wsp2021-10-30d02t08.flac:fd819adc5ea79c8addd8e2df6fbae9e0
wsp2021-10-30d02t09.flac:5645261e7c480a75354c8696fd9346b0
wsp2021-10-30d02t10.flac:ba07fb25f3d4f93bb6a1c380f7b1ad70
wsp2021-10-30d02t11.flac:5517dcd9e6cda8f79c9d4a67ec752da0
wsp2021-10-30d02t12.flac:cd132f405f8f75054ba4b060c2f85241
wsp2021-10-30d03t01.flac:781f935ad2b17470f0e317f68cba5caf
wsp2021-10-30d03t02.flac:eebb147484e7035fcbc4fe4f460c34db
wsp2021-10-30d03t03.flac:7a8a47935edddb7d170154b06158487f

length     expanded size    cdr  WAVE problems  fmt   ratio  filename
     6:45.46       71550236 B   ---   --   ---xx   flac  0.4689  wsp2021-10-30d01t01.flac
     7:36.49       80553692 B   ---   --   ---xx   flac  0.4741  wsp2021-10-30d01t02.flac
    10:46.14      113987372 B   ---   --   ---xx   flac  0.4698  wsp2021-10-30d01t03.flac
     8:03.15       85236524 B   ---   --   ---xx   flac  0.4214  wsp2021-10-30d01t04.flac
    10:52.13      115043420 B   ---   --   ---xx   flac  0.4679  wsp2021-10-30d01t05.flac
    12:16.53      129955100 B   ---   --   ---xx   flac  0.4744  wsp2021-10-30d01t06.flac
    10:33.36      111745916 B   ---   --   ---xx   flac  0.4848  wsp2021-10-30d01t07.flac
     5:08.35       54413564 B   ---   --   ---xx   flac  0.5208  wsp2021-10-30d01t08.flac
     5:43.28       60571100 B   ---   --   ---xx   flac  0.4262  wsp2021-10-30d02t01.flac
     3:56.48       41743340 B   ---   --   ---xx   flac  0.4683  wsp2021-10-30d02t02.flac
    12:26.14      131627372 B   ---   --   ---xx   flac  0.4449  wsp2021-10-30d02t03.flac
     7:20.69       77778332 B   ---   --   ---xx   flac  0.5078  wsp2021-10-30d02t04.flac
     8:21.60       88517564 B   ---   --   ---xx   flac  0.4555  wsp2021-10-30d02t05.flac
     5:59.57       63461708 B   ---   --   ---xx   flac  0.4829  wsp2021-10-30d02t06.flac
     4:20.74       46038092 B   ---   --   ---xx   flac  0.4723  wsp2021-10-30d02t07.flac
     7:43.59       81812012 B   ---   --   ---xx   flac  0.4593  wsp2021-10-30d02t08.flac
     4:20.73       46035740 B   ---   --   ---xx   flac  0.5029  wsp2021-10-30d02t09.flac
     5:53.54       62396252 B   ---   --   ---xx   flac  0.5189  wsp2021-10-30d02t10.flac
     4:55.36       52122716 B   ---   --   ---xx   flac  0.4786  wsp2021-10-30d02t11.flac
     3:44.45       39619484 B   ---   --   ---xx   flac  0.5074  wsp2021-10-30d02t12.flac
     6:06.55       64691804 B   ---   --   ---xx   flac  0.4018  wsp2021-10-30d03t01.flac
     6:52.25       72735644 B   ---   --   ---xx   flac  0.4589  wsp2021-10-30d03t02.flac
     5:25.64       57480572 B   ---   --   ---xx   flac  0.4947  wsp2021-10-30d03t03.flac
   165:15.47     1749117556 B                            0.4696  (23 files)





More information about the bittorrent mailing list