[bittorrent] Webster 14th Annual Jerry Day Atlanta Terminal West Atlanta, Georgia 10/17/2021 (Z-Man Schoeps CCM4V'S FOB)

Automated Mailer noreply-bt.e at etree.org
Sat Oct 30 17:50:06 UTC 2021


Band:           Other
Torrent Name:   Webster 14th Annual Jerry Day Atlanta Terminal West Atlanta, Georgia 10/17/2021 (Z-Man Schoeps CCM4V'S FOB)
Uploaded by:    zmanatl
DB Link:        
Details:        http://bt.etree.org/details.php?id=614306

Contact the seeder at http://db.etree.org/zmanatl

If the link to this show does not work, it was probably removed for
being non-trade-friendly.

Description / text file:
-------------------------
Webster
14th Annual Jerry Day Atlanta
Terminal West
Atlanta, Georgia
10/17/2021

Source: Schoeps CCM4V'S>Lunatec V2>Sound Devices 722 (24/44.1)
FOB/OTS/DRFC/KFC/ZFC/AARP 35' From Stage, 7' High
DSP: Sound Devices 722>Sound Forge 10.0>CD Wave>flac(16)
ID3 Tagged In Foobar 2000
Recorded By: Z-Man
Seeded By: Z-Man
A Team Dirty South Recording

Disc I 

01 Introduction By Lewis Newmark
02 Walk The Dog >
03 Mr. Charlie 
04 Peggy-O
05 Dupree's Diamond Blues
06 Here Comes Sunshine
07 Feel Like A Stranger 
08 Scarlet Begonias >
09 Fire On The Mountain >
10 Scarlet Begonias Reprise

Byron Alterman - Guitar And Vocals
Bill Chanler - Guitar And Vocals
Diane Rabson - Keyboards And Vocals
Roger Krystops - Bass
Jay Smith - Drums

webster 2021-10-17d01t01.flac:211a8f0c750f374b92f66568a6b9e495
webster 2021-10-17d01t02.flac:3f7e775b064e76570ae843a56f5ecef8
webster 2021-10-17d01t03.flac:71f78ca86219164eac4896ca1664e4fa
webster 2021-10-17d01t04.flac:dbba6d628588f3f56fab45658def0feb
webster 2021-10-17d01t05.flac:040ada333757e1e516bfc278096f762c
webster 2021-10-17d01t06.flac:15e922b49abcb1eb8a34ca5456c7aacb
webster 2021-10-17d01t07.flac:f30803b3dde9f3d89791b031b284a2b8
webster 2021-10-17d01t08.flac:21b18cd94701facd685e65daf035a81e
webster 2021-10-17d01t09.flac:153bd1a095ef7ae91976919eae67b440
webster 2021-10-17d01t10.flac:f9cb1de5f1a5a628008e845c9ad0efc3

 length     expanded size    cdr  WAVE problems  fmt   ratio  filename
     1:03.74       11287292 B   ---   --   ---xx   flac  0.3436  webster 2021-10-17d01t01.flac
     5:18.57       56229308 B   ---   --   ---xx   flac  0.5392  webster 2021-10-17d01t02.flac
     4:35.16       48547676 B   ---   --   ---xx   flac  0.5350  webster 2021-10-17d01t03.flac
     7:36.66       80593676 B   ---   --   ---xx   flac  0.4551  webster 2021-10-17d01t04.flac
     6:29.54       68746652 B   ---   --   ---xx   flac  0.5278  webster 2021-10-17d01t05.flac
     8:33.01       90495596 B   ---   --   ---xx   flac  0.4995  webster 2021-10-17d01t06.flac
     6:13.38       65886620 B   ---   --   ---xx   flac  0.5458  webster 2021-10-17d01t07.flac
     8:15.73       87489740 B   ---   --   ---xx   flac  0.5277  webster 2021-10-17d01t08.flac
     6:48.42       72070028 B   ---   --   ---xx   flac  0.5362  webster 2021-10-17d01t09.flac
     1:52.48       19869740 B   ---   --   ---xx   flac  0.4234  webster 2021-10-17d01t10.flac
    56:48.19      601216328 B                            0.5115  (10 files)



More information about the bittorrent mailing list