[bittorrent] Widespread Panic UNO Lakefront Arena New Orleans, Louisiana 10/29/2021 (Z-Man Schoeps CCM4V'S FOB)

Automated Mailer noreply-bt.e at etree.org
Sat Oct 30 07:24:54 UTC 2021


Band:           Widespread Panic
Torrent Name:   Widespread Panic UNO Lakefront Arena New Orleans, Louisiana 10/29/2021 (Z-Man Schoeps CCM4V'S FOB)
Uploaded by:    zmanatl
DB Link:        
Details:        http://bt.etree.org/details.php?id=614299

Contact the seeder at http://db.etree.org/zmanatl

If the link to this show does not work, it was probably removed for
being non-trade-friendly.

Description / text file:
-------------------------
Widespread Panic
UNO Lakefront Arena
New Orleans, Louisiana
10/29/2021 

Source: Schoeps CCM4V'S>Lunatec V2>Sound Devices 722 (24/44.1)
BOB/DFC/KFC/ZFC/AARP Clamped To The Rail, Front Of Upper Level, 6 1/2' High
DSP: Sound Devices 722>Sound Forge 10.0>CD Wave>flac(16)
ID3 Tagged In Foobar 2000
Recorded By: Z-Man
Seeded By: Z-Man
A Team Dirty South Recording

50th Anniversary Of Duanwe Allman's Death

Disc I 1st Set

01 Greeting By JB
02 Conrad The Caterpillar >
03 Pleas >
04 One-Arm Steve >
05 Jam >
06 Machine >
07 Barstools And Dreamers
08 Thought Sausage 
09 The Last Straw > 
10 Mountain Jam >
11 Protein Drink >
12 Sewing Machine

Disc II 2nd Set

01 Walkin' (For Your Love)
02 Rock
03 Hatfield >
04 Time Zones >
05 Pigeons

Disc III 2nd Set Con't 

01 Bust It Big >
02 Drum Solo >
03 Contentment Blues >
04 Bust It Big >
05 That Thang >
06 Ribs And Whiskey
Encore:
07 Blackout Blues 
08 North

John "JB" Bell - Guitar And Vocals
Jimmy Herring - Guitar
Dave Schools - Bass And Vocals
John "JoJo" Hermann - Keyboards And Vocals
Domingo "Sunny" Ortiz - Percussion
Duane Trucks - Drums

wsp2021-10-29d01t01.flac:d20781a1beb89b1817822d04b9a8f34e
wsp2021-10-29d01t02.flac:bd2221ccb507c676eb8267f02f85508f
wsp2021-10-29d01t03.flac:6fb0005cd7b9b7c491e599d24d834e9c
wsp2021-10-29d01t04.flac:04a59cb4f67eebadfc7b0bc5e9dfb69f
wsp2021-10-29d01t05.flac:e2ac91dce9414ab9ad69e09aa3a80bcf
wsp2021-10-29d01t06.flac:cec73050d28c15acdafd5d5a582c3701
wsp2021-10-29d01t07.flac:ef4faa9b2decd61f9edb9350a495c99e
wsp2021-10-29d01t08.flac:6c94fa7c8cd336f623b1e09dc56ef24c
wsp2021-10-29d01t09.flac:4e11682f30538c3ab697842b26e4a3ad
wsp2021-10-29d01t10.flac:2637f0afbf335ad6bdb72382e6e0e19c
wsp2021-10-29d01t11.flac:97f978e0e2097d5030775716e3614df3
wsp2021-10-29d01t12.flac:4d18a781a5e9aead567e1bfa5d1e71ac
wsp2021-10-29d02t01.flac:246d8f390b5091c72fc710e713c52664
wsp2021-10-29d02t02.flac:998e8905396b208f2e637cf465fc22eb
wsp2021-10-29d02t03.flac:862074c6bc57b20732c2064e0091208d
wsp2021-10-29d02t04.flac:076e4cc395d4251d36fd61b4647fe639
wsp2021-10-29d02t05.flac:8a1c8ced90e3c3d10f7d82d494ea5b32
wsp2021-10-29d03t01.flac:e9711cc2dbe83ca244e94eece674d0ae
wsp2021-10-29d03t02.flac:24f0ac5fee18652c1b090f2a8a01c0f4
wsp2021-10-29d03t03.flac:d7f9834785b713b48e51fe8f11628e71
wsp2021-10-29d03t04.flac:6fecc711656cc852b3b12825a6d34b18
wsp2021-10-29d03t05.flac:2ef7c0cf1f5ba210907eed7f995acff0
wsp2021-10-29d03t06.flac:bb13dc8cb2355741500a844bab6cbb2f
wsp2021-10-29d03t07.flac:16d4ba1ef5c8cd4b0dd3a1b68a81e2fa
wsp2021-10-29d03t08.flac:f2d9762b0f4c3090b0c2a3f469b0727f

 length     expanded size    cdr  WAVE problems  fmt   ratio  filename
     1:01.65       10913324 B   ---   --   ---xx   flac  0.3590  wsp2021-10-29d01t01.flac
     8:53.50       94138844 B   ---   --   ---xx   flac  0.4973  wsp2021-10-29d01t02.flac
     5:55.01       62624396 B   ---   --   ---xx   flac  0.4787  wsp2021-10-29d01t03.flac
     4:44.68       50257580 B   ---   --   ---xx   flac  0.4978  wsp2021-10-29d01t04.flac
     4:01.07       42528908 B   ---   --   ---xx   flac  0.4491  wsp2021-10-29d01t05.flac
     3:24.31       36058556 B   ---   --   ---xx   flac  0.5074  wsp2021-10-29d01t06.flac
    14:28.60      153256364 B   ---   --   ---xx   flac  0.4869  wsp2021-10-29d01t07.flac
     7:19.05       77451404 B   ---   --   ---xx   flac  0.4955  wsp2021-10-29d01t08.flac
     6:10.05       65279804 B   ---   --   ---xx   flac  0.4396  wsp2021-10-29d01t09.flac
     8:20.38       88289420 B   ---   --   ---xx   flac  0.4643  wsp2021-10-29d01t10.flac
     5:18.52       56217548 B   ---   --   ---xx   flac  0.4812  wsp2021-10-29d01t11.flac
     6:36.24       69910892 B   ---   --   ---xx   flac  0.5138  wsp2021-10-29d01t12.flac
     5:33.17       58781228 B   ---   --   ---xx   flac  0.4735  wsp2021-10-29d02t01.flac
    10:33.23      111715340 B   ---   --   ---xx   flac  0.4456  wsp2021-10-29d02t02.flac
    11:36.18      122816780 B   ---   --   ---xx   flac  0.4427  wsp2021-10-29d02t03.flac
     6:44.46       71373836 B   ---   --   ---xx   flac  0.4711  wsp2021-10-29d02t04.flac
    10:55.50      115659644 B   ---   --   ---xx   flac  0.4968  wsp2021-10-29d02t05.flac
     4:52.27       51572348 B   ---   --   ---xx   flac  0.4712  wsp2021-10-29d03t01.flac
     9:33.35      101159564 B   ---   --   ---xx   flac  0.4566  wsp2021-10-29d03t02.flac
     5:08.50       54448844 B   ---   --   ---xx   flac  0.4771  wsp2021-10-29d03t03.flac
     6:08.23       64969340 B   ---   --   ---xx   flac  0.4991  wsp2021-10-29d03t04.flac
    13:39.42      144570428 B   ---   --   ---xx   flac  0.4512  wsp2021-10-29d03t05.flac
     7:09.05       75687404 B   ---   --   ---xx   flac  0.5092  wsp2021-10-29d03t06.flac
     7:30.34       79460012 B   ---   --   ---xx   flac  0.4700  wsp2021-10-29d03t07.flac
     9:55.23      105012140 B   ---   --   ---xx   flac  0.5161  wsp2021-10-29d03t08.flac
   185:34.49     1964153948 B                            0.4766  (25 files)





More information about the bittorrent mailing list