[bittorrent] Bloodkin Santos Rock N' Roll Bar New Orleans, Louisiana 10/28/2021 (Z-Man Schoeps CCM4V'S FOB)

Automated Mailer noreply-bt.e at etree.org
Fri Oct 29 15:43:53 UTC 2021


Band:           Bloodkin
Torrent Name:   Bloodkin Santos Rock N' Roll Bar New Orleans, Louisiana 10/28/2021 (Z-Man Schoeps CCM4V'S FOB)
Uploaded by:    zmanatl
DB Link:        
Details:        http://bt.etree.org/details.php?id=614289

Contact the seeder at http://db.etree.org/zmanatl

If the link to this show does not work, it was probably removed for
being non-trade-friendly.

Description / text file:
-------------------------
Bloodkin
Santos Rock N' Roll Bar
New Orleans, Louisiana
10/28/2021

Source: Schoeps CCM4V'S>Lunatec V2>Sound Devices 722 (24/44.1)
FOB/DFC/KFC/ZFC/AARP 14' From Stage, 6 1/2' High
DSP: Sound Devices 722>Sound Forge 10.0>CD Wave>flac(16)
ID3 Tagged In Foobar 2000
Recorded By: Z-Man
Seeded By: Z-Man
A Team Dirty South Recording

Disc I 1st Set

01 Greeting
02 Wet Trombone Blues
03 Transistor Radio
04 Success Yourself
05 Lifer
06 Man In Trouble
07 Speed Freak Highway
08 Makes Sense To Me
09 Her Blues
10 Trashy
11 Black Jacket
12 ?
13 ?
14 ?

Disc II 2nd Set

01 Banter
02 Good Luck Charm
03 Quarter Tank Of Gasoline
04 ?
05 Cantina Fever
06 Did We Ever Have A Good Time
07 Can't Get High
08 Jazz Funeral
09 ?
10 End Of The Show >
11 Give Peace A Chance
12 Happy

Eric Carter - Guitar And Voccals
Tori Pater - Acoustic Guitar And Vocals
Johnny Neff - Guitar And Pedal Steel Guitar
Betsy Frank - Vocals
? - Bass
Aaron Phillips - Drums

bloodkin2021-10-28d01t01.flac:fc3165aa5e5eeefee8e829d04990b544
bloodkin2021-10-28d01t02.flac:ee8261bd3446323990b7a711bfb958c1
bloodkin2021-10-28d01t03.flac:c46f2ec77ada79ea7894184a02030ae7
bloodkin2021-10-28d01t04.flac:cd4fb8168fb223a18465430f8dfe9534
bloodkin2021-10-28d01t05.flac:866f5bd66726c43d2852c9ea66481c65
bloodkin2021-10-28d01t06.flac:f000d0a092348c49794c66ada3dfb605
bloodkin2021-10-28d01t07.flac:323e99b6ba75a4420e3425dcf65b0bf2
bloodkin2021-10-28d01t08.flac:ac09ab697ef4c5d87c01d7aed3e5fa84
bloodkin2021-10-28d01t09.flac:9ecb0b5e83219ac7cee71eceb71435fb
bloodkin2021-10-28d01t10.flac:aefd022d4c48003fb4a11d108287f16f
bloodkin2021-10-28d01t11.flac:0351bcc0a4556d7e71bc8e9393d53c28
bloodkin2021-10-28d01t12.flac:51be2c8f8f884babb4b11f858ec8dd56
bloodkin2021-10-28d01t13.flac:1c050456e63c8c2bb52684982ef59488
bloodkin2021-10-28d01t14.flac:4e56511859523ba602e35659cf36b5a0
bloodkin2021-10-28d02t01.flac:f0fe1101849b2d0c7fcb3e7206061d13
bloodkin2021-10-28d02t02.flac:4b202d7684779b35088721ed265a3393
bloodkin2021-10-28d02t03.flac:14396b45781014363c9080304119d527
bloodkin2021-10-28d02t04.flac:4b02423105e4ed9dc06b452478a98e8b
bloodkin2021-10-28d02t05.flac:6098a2cc2a22816f5caa069e7f733922
bloodkin2021-10-28d02t06.flac:054fcf6e796ce5c25ed029afe67b99a0
bloodkin2021-10-28d02t07.flac:d8b1909e48c773c79d6f448a37add634
bloodkin2021-10-28d02t08.flac:e7da3e3d665ec14e8612329a94740d21
bloodkin2021-10-28d02t09.flac:a0fd2d89e20303d67317daced3f77fbc
bloodkin2021-10-28d02t10.flac:db448ee69fbd464781088d8828804d02
bloodkin2021-10-28d02t11.flac:f808e087ede9dda079c4925b0b6daaaf
bloodkin2021-10-28d02t12.flac:7bf49a41d3f93b937fb51518f2eb83c2

 length     expanded size    cdr  WAVE problems  fmt   ratio  filename
     0:21.29        3772652 B   ---   --   ---xx   flac  0.2708  bloodkin2021-10-28d01t01.flac
     6:57.31       73631756 B   ---   --   ---xx   flac  0.4843  bloodkin2021-10-28d01t02.flac
     3:55.56       41585756 B   ---   --   ---xx   flac  0.5047  bloodkin2021-10-28d01t03.flac
     5:46.40       61128524 B   ---   --   ---xx   flac  0.4791  bloodkin2021-10-28d01t04.flac
     6:07.58       64875260 B   ---   --   ---xx   flac  0.4884  bloodkin2021-10-28d01t05.flac
     5:09.15       54542924 B   ---   --   ---xx   flac  0.4669  bloodkin2021-10-28d01t06.flac
     6:09.52       65213948 B   ---   --   ---xx   flac  0.4737  bloodkin2021-10-28d01t07.flac
     5:57.42       63073628 B   ---   --   ---xx   flac  0.4959  bloodkin2021-10-28d01t08.flac
     4:31.10       47827964 B   ---   --   ---xx   flac  0.3806  bloodkin2021-10-28d01t09.flac
     8:03.43       85302380 B   ---   --   ---xx   flac  0.4464  bloodkin2021-10-28d01t10.flac
     5:24.14       57186572 B   ---   --   ---xx   flac  0.4975  bloodkin2021-10-28d01t11.flac
     6:35.43       69779180 B   ---   --   ---xx   flac  0.4690  bloodkin2021-10-28d01t12.flac
     4:51.20       51379484 B   ---   --   ---xx   flac  0.4534  bloodkin2021-10-28d01t13.flac
     7:56.06       83980556 B   ---   --   ---xx   flac  0.4296  bloodkin2021-10-28d01t14.flac
     0:29.47        5226188 B   ---   --   ---xx   flac  0.3497  bloodkin2021-10-28d02t01.flac
     5:34.22       58969388 B   ---   --   ---xx   flac  0.4829  bloodkin2021-10-28d02t02.flac
     7:42.64       81647372 B   ---   --   ---xx   flac  0.4670  bloodkin2021-10-28d02t03.flac
     7:14.28       76623500 B   ---   --   ---xx   flac  0.4360  bloodkin2021-10-28d02t04.flac
     5:31.24       58444892 B   ---   --   ---xx   flac  0.4466  bloodkin2021-10-28d02t05.flac
     5:52.66       62248076 B   ---   --   ---xx   flac  0.4419  bloodkin2021-10-28d02t06.flac
     6:14.36       66058316 B   ---   --   ---xx   flac  0.4704  bloodkin2021-10-28d02t07.flac
     4:49.43       51080780 B   ---   --   ---xx   flac  0.4643  bloodkin2021-10-28d02t08.flac
     4:58.57       52701308 B   ---   --   ---xx   flac  0.5253  bloodkin2021-10-28d02t09.flac
     4:41.08       49587260 B   ---   --   ---xx   flac  0.4754  bloodkin2021-10-28d02t10.flac
     1:20.52       14234348 B   ---   --   ---xx   flac  0.5179  bloodkin2021-10-28d02t11.flac
     5:03.25       53508044 B   ---   --   ---xx   flac  0.5416  bloodkin2021-10-28d02t12.flac
   137:20.31     1453610056 B                            0.4685  (26 files)






More information about the bittorrent mailing list