[bittorrent] Magnolia Express "Old And In The Way Set" 14th Annual Jerry Day Atlanta Terminal West Atlanta, Georgia 10/17/2021 (Z-Man Schoeps CCM4V'S FOB)

Automated Mailer noreply-bt.e at etree.org
Thu Oct 28 23:13:00 UTC 2021


Band:           Other
Torrent Name:   Magnolia Express "Old And In The Way Set" 14th Annual Jerry Day Atlanta Terminal West Atlanta, Georgia 10/17/2021 (Z-Man Schoeps CCM4V'S FOB)
Uploaded by:    zmanatl
DB Link:        
Details:        http://bt.etree.org/details.php?id=614281

Contact the seeder at http://db.etree.org/zmanatl

If the link to this show does not work, it was probably removed for
being non-trade-friendly.

Description / text file:
-------------------------
Magnolia Express
"Old And In The Way Set"
14th Annual Jerry Day Atlanta
Terminal West
Atlanta, Georgia
10/17/2021

Source: Schoeps CCM4V'S>Lunatec V2>Sound Devices 722 (24/44.1)
FOB/OTS/DRFC/KFC/ZFC/AARP 10' From Stage, 6 1/2' High
DSP: Sound Devices 722>Sound Forge 10.0>CD Wave>flac(16)
ID3 Tagged In Foobar 2000
Recorded By: Z-Man
Seeded By: Z-Man
A Team Dirty South Recording

Disc I 

01 Pig In A Pen 
02 Midnight Moonlight
03 Old And In The Way
04 Knockin' On Your Door 
05 The Hobo Song
06 Panama Red 
07 Wild Horses
08 Kissime Kid 
09 White Dove
10 Land Of The Navajo
11 Catfish John
12 Eat My Dust
13 Band Introductions/Outro

Russell Brown - Guitar And Vocals
Scott Balun - Bass And Vocals
Jacques Dolan - Fiddle
Joe Kimsey - Banjo
Carrie Holley - Vocals
Jose Rivera - Percussion

magnolia2021-10-17d01t01.flac:46367418c3ff9f17221b7a61083c713a
magnolia2021-10-17d01t02.flac:37275e4a7fdf76f297ea9354a656f3f2
magnolia2021-10-17d01t03.flac:4cdb157616d54a85580198b903c74c37
magnolia2021-10-17d01t04.flac:2282a384ab1efea205e3ab9eff865e77
magnolia2021-10-17d01t05.flac:6b5ffb32dabb55a4fd5946444097696a
magnolia2021-10-17d01t06.flac:e64a0d511d3ec4e8a74f846ad8f8b6b4
magnolia2021-10-17d01t07.flac:2a2077025c98326d2da929dc34d86d99
magnolia2021-10-17d01t08.flac:ad131da5529e45ecdfa449d625257cd7
magnolia2021-10-17d01t09.flac:97885357deb6e9194ea0032875f537cb
magnolia2021-10-17d01t10.flac:5b0c3644294b3971e45cc4334d43e701
magnolia2021-10-17d01t11.flac:98eaa5362c5822a6954b57d0bd31d077
magnolia2021-10-17d01t12.flac:92f1ccbbac1e9d322afc253f81d98a3a
magnolia2021-10-17d01t13.flac:9d6aa32b32a6fec52ac45c6af64587cc

 length     expanded size    cdr  WAVE problems  fmt   ratio  filename
     2:06.74       22400492 B   ---   --   ---xx   flac  0.5015  magnolia2021-10-17d01t01.flac
     5:53.38       62358620 B   ---   --   ---xx   flac  0.4893  magnolia2021-10-17d01t02.flac
     4:10.20       44147084 B   ---   --   ---xx   flac  0.4665  magnolia2021-10-17d01t03.flac
     3:55.29       41522252 B   ---   --   ---xx   flac  0.5501  magnolia2021-10-17d01t04.flac
     6:09.56       65223356 B   ---   --   ---xx   flac  0.4831  magnolia2021-10-17d01t05.flac
     4:31.13       47835020 B   ---   --   ---xx   flac  0.4636  magnolia2021-10-17d01t06.flac
     5:34.09       58938812 B   ---   --   ---xx   flac  0.4461  magnolia2021-10-17d01t07.flac
     3:25.47       36272588 B   ---   --   ---xx   flac  0.4843  magnolia2021-10-17d01t08.flac
     5:45.22       60909788 B   ---   --   ---xx   flac  0.4241  magnolia2021-10-17d01t09.flac
     9:43.06      102855356 B   ---   --   ---xx   flac  0.4665  magnolia2021-10-17d01t10.flac
     3:55.25       41512844 B   ---   --   ---xx   flac  0.5149  magnolia2021-10-17d01t11.flac
     3:29.02       36872348 B   ---   --   ---xx   flac  0.5077  magnolia2021-10-17d01t12.flac
     1:17.26       13643996 B   ---   --   ---xx   flac  0.3803  magnolia2021-10-17d01t13.flac
    59:56.67      634492556 B                            0.4757  (13 files)






More information about the bittorrent mailing list