[bittorrent] Frankly Scarlet 14th Annual Jerry Day Atlanta Terminal West Atlanta, Georgia 10/17/2021 (Z-Man Schoeps CCM4V'S FOB)

Automated Mailer noreply-bt.e at etree.org
Thu Oct 28 16:22:45 UTC 2021


Band:           Other
Torrent Name:   Frankly Scarlet 14th Annual Jerry Day Atlanta Terminal West Atlanta, Georgia 10/17/2021 (Z-Man Schoeps CCM4V'S FOB)
Uploaded by:    zmanatl
DB Link:        
Details:        http://bt.etree.org/details.php?id=614278

Contact the seeder at http://db.etree.org/zmanatl

If the link to this show does not work, it was probably removed for
being non-trade-friendly.

Description / text file:
-------------------------
Frankly Scarlet
14th Annual Jerry Day Atlanta
Terminal West
Atlanta, Georgia
10/17/2021

Source: Schoeps CCM4V'S>Lunatec V2>Sound Devices 722 (24/44.1)
FOB/OTS/DRFC/KFC/ZFC/AARP 35' From Stage, 7' High
DSP: Sound Devices 722>Sound Forge 10.0>CD Wave>flac(16)
ID3 Tagged In Foobar 2000
Recorded By: Z-Man
Seeded By: Z-Man
A Team Dirty South Recording

Disc I 1st Set

01 *#The Music Never Stopped
02 The Race Is On
03 They Love Each Other
04 Lewis Thanks Our Sponsors
05 Terrapin Station >
06 Playin' In The Band 

* Arrived after the set started due to a prior committment.
# With Scott Lofranco On Guitar

Lewis Newmark - Guitar And Vocals
Jim Roe - Acoustic Guitar And Vocals
Craig Neely - Guitar And Vocals
Diane Rabson - Keyboards And Vocals
Malcom Fields - And VocalsBass
Ryan Marcus - Drums

gr8fl2021-10-17d01t01.flac:c55ccfce7e48e54f5ff3a814f38ed524
gr8fl2021-10-17d01t02.flac:50d1577fce7106e975f84c41d4d11af3
gr8fl2021-10-17d01t03.flac:039a39cf440fd109fcb42da57fe3e16e
gr8fl2021-10-17d01t04.flac:c071e4893177cfd8ac18e06cb7a5d21d
gr8fl2021-10-17d01t05.flac:d4fb0bf3b6879bdd969e391592ef1716
gr8fl2021-10-17d01t06.flac:ab2c29f14b7ca44fb6acb543e483d835

 length     expanded size    cdr  WAVE problems  fmt   ratio  filename
     3:18.37       35014268 B   ---   --   ---xx   flac  0.4822  gr8fl2021-10-17d01t01.flac
     4:44.27       50161148 B   ---   --   ---xx   flac  0.4692  gr8fl2021-10-17d01t02.flac
     6:37.72       70200188 B   ---   --   ---xx   flac  0.4830  gr8fl2021-10-17d01t03.flac
     1:48.28       19117100 B   ---   --   ---xx   flac  0.3903  gr8fl2021-10-17d01t04.flac
    10:37.11      112392716 B   ---   --   ---xx   flac  0.4988  gr8fl2021-10-17d01t05.flac
    11:42.65      123985724 B   ---   --   ---xx   flac  0.5042  gr8fl2021-10-17d01t06.flac
    38:49.15      410871144 B                            0.4877  (6 files)






More information about the bittorrent mailing list