[bittorrent] Debbie Davis And Jpsh Paxton Chickie Wah Wah New Orleans, Louisiana 10/27/2021 (Z-Man Schoeps CCM4V'S FOB)

Automated Mailer noreply-bt.e at etree.org
Thu Oct 28 10:14:59 UTC 2021


Band:           Other
Torrent Name:   Debbie Davis And Jpsh Paxton Chickie Wah Wah New Orleans, Louisiana 10/27/2021 (Z-Man Schoeps CCM4V'S FOB)
Uploaded by:    zmanatl
DB Link:        
Details:        http://bt.etree.org/details.php?id=614277

Contact the seeder at http://db.etree.org/zmanatl

If the link to this show does not work, it was probably removed for
being non-trade-friendly.

Description / text file:
-------------------------
Debbie Davis And Jpsh Paxton
Chickie Wah Wah
New Orleans, Louisiana
10/27/2021

Source: Schoeps CCM4V'S>Lunatec V2>Sound Devices 722 (24/44.1)
FOB/DFC/KFC/ZFC/AARP 10' From Stage, 5' High
DSP: Sound Devices 722>Sound Forge 10.0>CD Wave>flac(16)
ID3 Tagged In Foobar 2000
Recorded By: Z-Man
Seeded By: Z-Man
A Team Dirty South Recording

Disc I 1st Set

01 *Instrumental
02 Love's In Need Of Love Today
03 I'm Crazy About My Baby (And My Baby's Crazy About Me)
04 Banter About Burt Bacharack
05 Say A Little Prayer For Me
06 When I'm 64 
07 Teach Me Tonight
08 Caravan
09 Marie
10 If I Were A Bell

Disc II 2nd Set

01 *Instrumental
02 You'd Be Surprised
03 You Don't Know Me 
04 Ain't Misbehavin'
05 The Jitterbug Waltz
06 Such A Night
07 Banter On Capital Records Orchestra
08 Everybody's Fucking But Me

* Josh Solo

Debbie Davis - Vocals
Josh Paxton - Piano

debbie2021-10-27d01t01.flac:2e0e37ef7dbe7338ef620ff8535f8fd0
debbie2021-10-27d01t02.flac:690d62ec585228d513c71003dbcd3d8e
debbie2021-10-27d01t03.flac:5bbd0727a5326c9aaf8e6f77e595ed71
debbie2021-10-27d01t04.flac:d4cd4ae769427d3cdbfa44e8852e25ca
debbie2021-10-27d01t05.flac:7e495c11c884fb5d2a03cb99af7778bf
debbie2021-10-27d01t06.flac:2c59d959e3039068acb38e85ca6b7221
debbie2021-10-27d01t07.flac:8038a2c084866517459e2a7870251c05
debbie2021-10-27d01t08.flac:2fa5eabec736ab7a707a2799d550af74
debbie2021-10-27d01t09.flac:1dcb410b893f0181277147adcb08182c
debbie2021-10-27d01t10.flac:a633566b482098087e06759a69ff56c5
debbie2021-10-27d02t01 (8).flac:5c9db83e794182a67e56a5ec075c373b
debbie2021-10-27d02t01.flac:0f1df09b9d4fb8b830ac173f76df21a3
debbie2021-10-27d02t02.flac:a09dd177a262d4f86acb4518ee131424
debbie2021-10-27d02t03.flac:a9113791c3d67c307e6f1ae970ffd269
debbie2021-10-27d02t04.flac:e8c7ac0e1b87d691fcabff9d9ab04fe0
debbie2021-10-27d02t05.flac:443d136480efa25d6b961266ed17a20c
debbie2021-10-27d02t06.flac:d399503c09435b73c604bd20490d1b38
debbie2021-10-27d02t07.flac:e9297a915ea368daf1577bc9a4f92059

  length     expanded size    cdr  WAVE problems  fmt   ratio  filename
     5:36.20       59317484 B   ---   --   ---xx   flac  0.3487  debbie2021-10-27d01t01.flac
     6:02.23       63910940 B   ---   --   ---xx   flac  0.3625  debbie2021-10-27d01t02.flac
     2:55.26       30931196 B   ---   --   ---xx   flac  0.4011  debbie2021-10-27d01t03.flac
     2:29.53       26408300 B   ---   --   ---xx   flac  0.3222  debbie2021-10-27d01t04.flac
     7:14.30       76628204 B   ---   --   ---xx   flac  0.3459  debbie2021-10-27d01t05.flac
     6:27.18       68309180 B   ---   --   ---xx   flac  0.3689  debbie2021-10-27d01t06.flac
     5:04.14       53658572 B   ---   --   ---xx   flac  0.3793  debbie2021-10-27d01t07.flac
     6:25.72       68083388 B   ---   --   ---xx   flac  0.3666  debbie2021-10-27d01t08.flac
     5:59.74       63501692 B   ---   --   ---xx   flac  0.3339  debbie2021-10-27d01t09.flac
     4:19.47       45798188 B   ---   --   ---xx   flac  0.3901  debbie2021-10-27d01t10.flac
     5:45.07       60874508 B   ---   --   ---xx   flac  0.3707  debbie2021-10-27d02t01 (8).flac
     7:35.51       80381996 B   ---   --   ---xx   flac  0.3369  debbie2021-10-27d02t01.flac
     6:07.55       64868204 B   ---   --   ---xx   flac  0.3617  debbie2021-10-27d02t02.flac
     6:41.11       70762316 B   ---   --   ---xx   flac  0.3323  debbie2021-10-27d02t03.flac
     3:38.53       38579900 B   ---   --   ---xx   flac  0.3637  debbie2021-10-27d02t04.flac
     8:25.51       89201996 B   ---   --   ---xx   flac  0.3149  debbie2021-10-27d02t05.flac
     8:07.70       86071484 B   ---   --   ---xx   flac  0.3662  debbie2021-10-27d02t06.flac
     4:42.70       49909484 B   ---   --   ---xx   flac  0.3169  debbie2021-10-27d02t07.flac
   103:39.70     1097197032 B                            0.3527  (18 files)





More information about the bittorrent mailing list