[bittorrent] Vince Hermann, Benny Galloway, Mimi Naja, Lawrence, And Lindsay Lou The Hunt House Patio The Hunt House Marietta, Georgia 10/17/2021 (Z-Man Schoeps CCM4V'S FOB)

Automated Mailer noreply-bt.e at etree.org
Wed Oct 27 16:36:21 UTC 2021


Band:           Other
Torrent Name:   Vince Hermann, Benny Galloway, Mimi Naja, Lawrence, And Lindsay Lou The Hunt House Patio The Hunt House Marietta, Georgia 10/17/2021 (Z-Man Schoeps CCM4V'S FOB)
Uploaded by:    zmanatl
DB Link:        
Details:        http://bt.etree.org/details.php?id=614264

Contact the seeder at http://db.etree.org/zmanatl

If the link to this show does not work, it was probably removed for
being non-trade-friendly.

Description / text file:
-------------------------
Vince Hermann, Benny Galloway, Mimi Naja, Lawrence, And Lindsay Lou
The Hunt House Patio
The Hunt House
Marietta, Georgia
10/17/2021

Source: Schoeps CCM4V'S>Lunatec V2>Sound Devices 722 (24/44.1)
FOB/OTS/DRFC/KFC/ZFC/AARP 6' From Stage, 5 1/2' High
DSP: Sound Devices 722>Sound Forge 10.0>CD Wave>flac(16)
ID3 Tagged In Foobar 2000
Recorded By: Z-Man
Seeded By: Z-Man
A Team Dirty South Recording

Disc I 1st Set

01 Introduction By Marc Sommers
02 *Won't You Come And Sing For Me
03 *In My Hour Of Darkness
04 *Sin City
05 The Poor House
06 Durango
07 Tear My Stillhouse Down
08 *Spanish Piopedream 
09 Speed Of The Sound Of Loneliness
10 #Sweet Revenge
11 #I'll Be Here In The Morning
12 King Of The Road 
13 Banter
14 Ramblin' Boy

Disc II 2nd Set 

01 #Lines Around Your Eyes
02 #Nobody's Fault But Mine 
03 #Last Train From Poor Valley
04 #Angel Band
05 Hey Woody Guthrie
06 Find A Better Way
07 *Last Dance With Mary Jane
08 Banter
09 *Aragon Mill
10 *Santa Fe
11 #You're Gonna Make Me Lonesome When You Go
12 #Help Me Make It Through The Night
13 Eight More Miles To Louisville
14 *Stealin'
15 50 Miles Of Elbow Room
16 White Freight-Liner Blues
17 Marc Sommers Outro

* With Lindsay Lou On Vocals
# With Lindsay Lou On Guitar And Vocals

Vince Hermann -  Guitar, Mandolin, Bass And Vocals
Bennie "Burle - Galloway - Guitar, Bass, And Vocals
Mimi Naja - Mandolin, Guitar, Bass, And Vocals
Lawrence - Percussion

vince2021-10-17d01t01.flac:ccfd9933213d54c1223a3d90dfb3958b
vince2021-10-17d01t02.flac:96271705c65870a9b2ff5c099ed323ab
vince2021-10-17d01t03.flac:9da05704d27f71de4bcb913fa57c9d6a
vince2021-10-17d01t04.flac:1267ef51000a58218ddc6cc870565726
vince2021-10-17d01t05.flac:acb35a1b866a76f9a62d35c2c05513e5
vince2021-10-17d01t06.flac:cb079412bfe6d7ac2682b4f8dcf8f943
vince2021-10-17d01t07.flac:6d5087853ff270fc2ebd70c05884fcf9
vince2021-10-17d01t08.flac:730306506a08c398fc762e7455d42a34
vince2021-10-17d01t09.flac:511d466edc22e3f005cb084685758756
vince2021-10-17d01t10.flac:f0df50e2f4325ba427f4ba1911a3fee4
vince2021-10-17d01t11.flac:0bebd2d0b076e2d8b4fadff6006ea0f9
vince2021-10-17d01t12.flac:e6987e48ae5529a5bc45cb873d68d434
vince2021-10-17d01t13.flac:2038c0e4bb244975d2cd56ad5b3249ad
vince2021-10-17d01t14.flac:c4f441576995136f8a09091a744ec3a1
vince2021-10-17d02t01.flac:2d58507602ad88db0016d4f2f5731e8d
vince2021-10-17d02t02.flac:1e78d6c617a55c0e8981e33ad9dc3082
vince2021-10-17d02t03.flac:1302f30a9793b4079265609296b970a3
vince2021-10-17d02t04.flac:39869780c21354948ac478bf96df13cc
vince2021-10-17d02t05.flac:3ec68c1e79f3be1c4f0ff73626cf37ba
vince2021-10-17d02t06.flac:e7791d329b01c087c4062fe5cf9dedde
vince2021-10-17d02t07.flac:e247076655f1fb54731beb299ac8e43a
vince2021-10-17d02t08.flac:3c42ac8b002b98dd91b0c3f544dc4ddd
vince2021-10-17d02t09.flac:4cc879a38d3b067db5545604494da868
vince2021-10-17d02t10.flac:b1c332d88102f5dbe54a5b62a92c348f
vince2021-10-17d02t11.flac:b50d1ccfc5bb6cbe0179cf5a62b06581
vince2021-10-17d02t12.flac:a6b1164149e1b25612334af05b2d4156
vince2021-10-17d02t13.flac:a101600f4a3bce6f766318d98251f011
vince2021-10-17d02t14.flac:388a46ff04236e33add76065c0a5fcb7
vince2021-10-17d02t15.flac:9d05f929bda32db71c71d454fde59c8f
vince2021-10-17d02t16.flac:196276d99f7f7fdcd95a8cf1a3f3d651
vince2021-10-17d02t17.flac:fe122e04263e9090cc08c9061bca3f36

 length     expanded size    cdr  WAVE problems  fmt   ratio  filename
     3:20.58       35416460 B   ---   --   ---xx   flac  0.2810  vince2021-10-17d01t01.flac
     4:26.49       47037692 B   ---   --   ---xx   flac  0.3275  vince2021-10-17d01t02.flac
     4:21.65       46193324 B   ---   --   ---xx   flac  0.3454  vince2021-10-17d01t03.flac
     5:12.26       55097996 B   ---   --   ---xx   flac  0.3609  vince2021-10-17d01t04.flac
     6:53.06       72867356 B   ---   --   ---xx   flac  0.3647  vince2021-10-17d01t05.flac
     5:10.61       54827516 B   ---   --   ---xx   flac  0.3470  vince2021-10-17d01t06.flac
     4:31.18       47846780 B   ---   --   ---xx   flac  0.4000  vince2021-10-17d01t07.flac
     4:48.03       50810300 B   ---   --   ---xx   flac  0.3570  vince2021-10-17d01t08.flac
     7:15.70       76898684 B   ---   --   ---xx   flac  0.3249  vince2021-10-17d01t09.flac
     4:28.20       47322284 B   ---   --   ---xx   flac  0.3653  vince2021-10-17d01t10.flac
     6:08.01       64917596 B   ---   --   ---xx   flac  0.3178  vince2021-10-17d01t11.flac
     3:26.59       36477212 B   ---   --   ---xx   flac  0.3245  vince2021-10-17d01t12.flac
     2:50.43       30089180 B   ---   --   ---xx   flac  0.2768  vince2021-10-17d01t13.flac
     3:59.62       42305468 B   ---   --   ---xx   flac  0.3764  vince2021-10-17d01t14.flac
     4:20.65       46016924 B   ---   --   ---xx   flac  0.4406  vince2021-10-17d02t01.flac
     6:07.18       64781180 B   ---   --   ---xx   flac  0.3926  vince2021-10-17d02t02.flac
     5:45.60       60999164 B   ---   --   ---xx   flac  0.3719  vince2021-10-17d02t03.flac
     4:51.12       51360668 B   ---   --   ---xx   flac  0.3855  vince2021-10-17d02t04.flac
     4:42.37       49831868 B   ---   --   ---xx   flac  0.4106  vince2021-10-17d02t05.flac
     6:21.72       67377788 B   ---   --   ---xx   flac  0.3981  vince2021-10-17d02t06.flac
     5:25.34       57410012 B   ---   --   ---xx   flac  0.4346  vince2021-10-17d02t07.flac
     1:20.19       14156732 B   ---   --   ---xx   flac  0.2901  vince2021-10-17d02t08.flac
     4:32.23       48034940 B   ---   --   ---xx   flac  0.3637  vince2021-10-17d02t09.flac
     5:05.57       53936108 B   ---   --   ---xx   flac  0.3411  vince2021-10-17d02t10.flac
     5:17.12       55947068 B   ---   --   ---xx   flac  0.4097  vince2021-10-17d02t11.flac
     5:08.68       54491180 B   ---   --   ---xx   flac  0.3332  vince2021-10-17d02t12.flac
     3:18.48       35040140 B   ---   --   ---xx   flac  0.4184  vince2021-10-17d02t13.flac
     5:12.05       55048604 B   ---   --   ---xx   flac  0.3548  vince2021-10-17d02t14.flac
     5:26.07       57522908 B   ---   --   ---xx   flac  0.3658  vince2021-10-17d02t15.flac
     4:25.65       46898924 B   ---   --   ---xx   flac  0.4181  vince2021-10-17d02t16.flac
     1:19.22       13987388 B   ---   --   ---xx   flac  0.3489  vince2021-10-17d02t17.flac
   145:35.40     1540949444 B                            0.3662  (31 files)






More information about the bittorrent mailing list