[bittorrent] Russell Batiste Portside Lounge New Orleans, Louisiana 10/26/2021 (Z-Man Schoeps CCM4V'S FOB)

Automated Mailer noreply-bt.e at etree.org
Wed Oct 27 06:50:15 UTC 2021


Band:           Other
Torrent Name:   Russell Batiste Portside Lounge New Orleans, Louisiana 10/26/2021 (Z-Man Schoeps CCM4V'S FOB)
Uploaded by:    zmanatl
DB Link:        
Details:        http://bt.etree.org/details.php?id=614263

Contact the seeder at http://db.etree.org/zmanatl

If the link to this show does not work, it was probably removed for
being non-trade-friendly.

Description / text file:
-------------------------
Russell Batiste
Portside Lounge
New Orleans, Louisiana
10/26/2021

Source: Schoeps CCM4V'S>Lunatec V2>Sound Devices 722 (24/44.1)
FOB/DFC/KFC/ZFC/AARP 10' From Stage, 5' High
DSP: Sound Devices 722>Sound Forge 10.0>CD Wave>flac(16)
ID3 Tagged In Foobar 2000
Recorded By: Z-Man
Seeded By: Z-Man
A Team Dirty South Recording

Disc I 

01 Get On Down
02 Best To Be >
03 Let You Stick Around
04 Black Water
05 ?
06 Be As One
07 ?
08 Get Down On It 
09 All We Wanna Do, Is Get Funky For You
10 Not Fade Away >
11 Aiko-Aiko >
12 Unbroken Chain Jam >
13 China Doll
14 Oh Susannah
15 ?

Disc II 2nd Set

01 ? >
02 New Found Creation
03 ? 
04 ?
05 Get On Down 
06 The Muensters Theme Song >
07 Friday The 13th >
08 The Muensters Theme Song

Russell Batiste - Drumns And Vocals
Bill Richards - Bass And Vocals
Greg Molinario - Guitar And Vocals
Ian Cunningham - Guitar
Renee Gros - Vocals
Bill Breen - Keyboard
Reggie Green - Percussion

russell2021-10-26d01t01.flac:225bec66eb3d7e9ce9cf7620f59347b2
russell2021-10-26d01t02.flac:26935f8739edec62e2a18fc4311d1e6b
russell2021-10-26d01t03.flac:d07b3c82315f6bafc822e1a2e0075358
russell2021-10-26d01t04.flac:035ece1f6b60f6b466e81710bb4fecfd
russell2021-10-26d01t05.flac:d2c4922756787783e6a66d56927316e7
russell2021-10-26d01t06.flac:9ca3af5c87e60cdc9bf51397973d24b7
russell2021-10-26d01t07.flac:02945f74e8fabcbf418ea4eb1ae941bf
russell2021-10-26d01t08.flac:f1a4cb5a923107b84aae6b4592471fa7
russell2021-10-26d01t09.flac:a8a10247c89141759632227e73bccdff
russell2021-10-26d01t10.flac:4f2f9cfdd6979b037bc7c137be96a5fb
russell2021-10-26d01t11.flac:73fee225eddf134cc474918ac8253e14
russell2021-10-26d01t12.flac:ac7ae3f9b40082aabc03db94c880a710
russell2021-10-26d01t13.flac:4e6e7fb0fa7b03aaa531b6863f5ec9f5
russell2021-10-26d01t14.flac:1d85deb28886a7fc8f4f0ca52400cb56
russell2021-10-26d01t15.flac:3ce54a2f98228be02f279b4e9ea4df55
russell2021-10-26d02t01.flac:1f3ff749e219fd8e51f7da78f3fd8908
russell2021-10-26d02t02.flac:ceb4ddcb9194019b947b87a1dc4a65f1
russell2021-10-26d02t03.flac:2b97649784d2d9ae696ab6a484aa978d
russell2021-10-26d02t04.flac:1fb15cb0a9f5253bff3bc0a6f8d82bfd
russell2021-10-26d02t05.flac:402d4560807ace4e09f659e3061da304
russell2021-10-26d02t06.flac:96a0b5cd69a2b2c6b5a5070af5bfd717
russell2021-10-26d02t07.flac:f9be40ac4853cba4108841246f718645
russell2021-10-26d02t08.flac:ff965eec713b6ebbc14eda2e5acb8016

  length     expanded size    cdr  WAVE problems  fmt   ratio  filename
     5:59.71       63494636 B   ---   --   ---xx   flac  0.5109  russell2021-10-26d01t01.flac
     1:25.00       14994044 B   ---   --   ---xx   flac  0.4934  russell2021-10-26d01t02.flac
     4:52.69       51671132 B   ---   --   ---xx   flac  0.5073  russell2021-10-26d01t03.flac
     4:41.15       49603724 B   ---   --   ---xx   flac  0.5107  russell2021-10-26d01t04.flac
     5:51.46       62024636 B   ---   --   ---xx   flac  0.5146  russell2021-10-26d01t05.flac
     4:25.55       46875404 B   ---   --   ---xx   flac  0.5049  russell2021-10-26d01t06.flac
     4:24.64       46720172 B   ---   --   ---xx   flac  0.5601  russell2021-10-26d01t07.flac
     5:42.63       60477020 B   ---   --   ---xx   flac  0.5216  russell2021-10-26d01t08.flac
     4:16.59       45297212 B   ---   --   ---xx   flac  0.5086  russell2021-10-26d01t09.flac
     1:49.48       19340540 B   ---   --   ---xx   flac  0.5156  russell2021-10-26d01t10.flac
     0:52.55        9302204 B   ---   --   ---xx   flac  0.5166  russell2021-10-26d01t11.flac
     1:44.53       18470300 B   ---   --   ---xx   flac  0.5799  russell2021-10-26d01t12.flac
     1:06.66       11797676 B   ---   --   ---xx   flac  0.4856  russell2021-10-26d01t13.flac
     4:36.06       48700556 B   ---   --   ---xx   flac  0.5061  russell2021-10-26d01t14.flac
     3:53.69       41263532 B   ---   --   ---xx   flac  0.5073  russell2021-10-26d01t15.flac
     2:43.11       28779116 B   ---   --   ---xx   flac  0.5517  russell2021-10-26d02t01.flac
     3:47.03       40049900 B   ---   --   ---xx   flac  0.5987  russell2021-10-26d02t02.flac
     3:18.34       35007212 B   ---   --   ---xx   flac  0.5453  russell2021-10-26d02t03.flac
     6:02.57       63990908 B   ---   --   ---xx   flac  0.5730  russell2021-10-26d02t04.flac
     4:58.20       52614284 B   ---   --   ---xx   flac  0.5476  russell2021-10-26d02t05.flac
     0:50.23        8874140 B   ---   --   ---xx   flac  0.6028  russell2021-10-26d02t06.flac
     1:33.68       16565180 B   ---   --   ---xx   flac  0.6272  russell2021-10-26d02t07.flac
     1:31.68       16212380 B   ---   --   ---xx   flac  0.5110  russell2021-10-26d02t08.flac
    80:30.48      852125908 B                            0.5316  (23 files)





More information about the bittorrent mailing list