[bittorrent] George Porter Jr. Trio The Maple Leaf New Orleans, Louisiana 10/25/2021 (Z-Man Schoeps CCM4V'S FOB)

Automated Mailer noreply-bt.e at etree.org
Tue Oct 26 19:44:30 UTC 2021


Band:           George Porter Jr. & Runnin' P
Torrent Name:   George Porter Jr. Trio The Maple Leaf  New Orleans, Louisiana 10/25/2021 (Z-Man Schoeps CCM4V'S FOB)
Uploaded by:    zmanatl
DB Link:        
Details:        http://bt.etree.org/details.php?id=614262

Contact the seeder at http://db.etree.org/zmanatl

If the link to this show does not work, it was probably removed for
being non-trade-friendly.

Description / text file:
-------------------------
George Porter Jr. Trio
The Maple Leaf 
New Orleans, Louisiana
10/25/2021

Source: Schoeps CCM4V'S>Lunatec V2>Sound Devices 722 (24/44.1)
FOB/DFC/KFC/ZFC/AARP 4' From Stage, 6 1/2' High
DSP: Sound Devices 722>Sound Forge 10.0>CD Wave>flac(16)
ID3 Tagged In Foobar 2000
Recorded By: Z-Man
Seeded By: Z-Man
A Team Dirty South Recording

Disc I 

01 ? >
02 ?
03 ?
04 *Britches
05 *The Same Old Thing
06 *Down By The River >
07 *Just Kissed My Baby

Disc II 

01 *More Time >
02 *Cloud Funk >
03 #We Stay Groovin' 
04 George Banter
05 *Crying For Hope
06 *@Fever >
07 *?
08 Band Introductions/George Banter
09 *Goodnight Sweetheart >
10 Look-Ka Py Py

* With Chris Adkins on Guitar And Vocals
# With The Wall Street Shuffle Ending
@ With Leslie Cooper On Vocals

George Porter Jr. - Bass And Vocals
Michael Lemmler - Keyboards And Vocals
Terence Houston - Drums

george2021-10-25d01t01.flac:e47ef7683f013480f0ae0ecd5055a07d
george2021-10-25d01t02.flac:5c559a7ef507a32f7190b0691df0b198
george2021-10-25d01t03.flac:7e93fbc3f48be702c744e411d7eb8af0
george2021-10-25d01t04.flac:05a608e214e6b159c707117cb9eab838
george2021-10-25d01t05.flac:8a54327ddc0a652e1f1abefbd491c282
george2021-10-25d01t06.flac:076924b3dfcdf7350e840a0a6da677ac
george2021-10-25d01t07.flac:a42279beafd1e1828cb3d023a23af897
george2021-10-25d02t01.flac:3de0859fcf65edaeb360bf2b925054a6
george2021-10-25d02t02.flac:1de5d9ff7f4884348035cdef048d01de
george2021-10-25d02t03.flac:3a7d5e8c28fed058959281b52f23b2b8
george2021-10-25d02t04.flac:2211b86f2e5feb516117681e3747d429
george2021-10-25d02t05.flac:11d70534d82a294e38618111a4edc7ec
george2021-10-25d02t06.flac:b69d09852e4691cd3fd692534179e544
george2021-10-25d02t07.flac:2a4fedfb8d51bbad384353be054e9681
george2021-10-25d02t08.flac:b045a6faa059ec542c434f037b95210d
george2021-10-25d02t09.flac:518433619c4bc28d4cef89a7b8481d16
george2021-10-25d02t10.flac:3f2df54d863a73eb56eb74316c712754

 length     expanded size    cdr  WAVE problems  fmt   ratio  filename
    12:57.60      137203964 B   ---   --   ---xx   flac  0.5420  george2021-10-25d01t01.flac
    10:37.63      112515020 B   ---   --   ---xx   flac  0.4937  george2021-10-25d01t02.flac
    13:26.29      142246652 B   ---   --   ---xx   flac  0.5366  george2021-10-25d01t03.flac
     8:59.28       95145500 B   ---   --   ---xx   flac  0.5779  george2021-10-25d01t04.flac
     9:11.23       97250540 B   ---   --   ---xx   flac  0.5773  george2021-10-25d01t05.flac
    10:27.16      110640476 B   ---   --   ---xx   flac  0.5122  george2021-10-25d01t06.flac
     8:14.67       87299228 B   ---   --   ---xx   flac  0.5159  george2021-10-25d01t07.flac
    10:06.64      107048972 B   ---   --   ---xx   flac  0.5181  george2021-10-25d02t01.flac
     5:25.70       57494684 B   ---   --   ---xx   flac  0.5677  george2021-10-25d02t02.flac
    10:14.73      108481340 B   ---   --   ---xx   flac  0.5882  george2021-10-25d02t03.flac
     2:38.48       27984140 B   ---   --   ---xx   flac  0.3253  george2021-10-25d02t04.flac
     5:09.21       54557036 B   ---   --   ---xx   flac  0.5372  george2021-10-25d02t05.flac
     5:15.14       55598972 B   ---   --   ---xx   flac  0.4583  george2021-10-25d02t06.flac
     6:21.31       67281356 B   ---   --   ---xx   flac  0.5951  george2021-10-25d02t07.flac
     3:03.24       32337692 B   ---   --   ---xx   flac  0.3138  george2021-10-25d02t08.flac
     5:39.41       59896076 B   ---   --   ---xx   flac  0.4258  george2021-10-25d02t09.flac
     1:49.65       19380524 B   ---   --   ---xx   flac  0.4698  george2021-10-25d02t10.flac
   129:39.62     1372362172 B                            0.5244  (17 files)





More information about the bittorrent mailing list