[bittorrent] Widespread Panic The Riverside Theatre Milwaukee, Wisconsin 10/24/2021 (Z-Man Schoeps CCM4V'S FOB)

Automated Mailer noreply-bt.e at etree.org
Mon Oct 25 06:51:49 UTC 2021


Band:           Widespread Panic
Torrent Name:   Widespread Panic The Riverside Theatre Milwaukee, Wisconsin 10/24/2021 (Z-Man Schoeps CCM4V'S FOB)
Uploaded by:    zmanatl
DB Link:        
Details:        http://bt.etree.org/details.php?id=614245

Contact the seeder at http://db.etree.org/zmanatl

If the link to this show does not work, it was probably removed for
being non-trade-friendly.

Description / text file:
-------------------------
Widespread Panic
The Riverside Theatre
Milwaukee, Wisconsin
10/24/2021

Source: Schoeps CCM4V'S>Lunatec V2>Sound Devices 722 (24/44.1)
FOB/DFC/KFC/ZFC/AARP 4th Row, Between Seets 1 & 2, 7' High
DSP: Sound Devices 722>Sound Forge 10.0>CD Wave>flac(16)
ID3 Tagged In Foobar 2000
Recorded By: Z-Man
Seeded By: Z-Man
A Team Dirty South Recording

Disc I 1st Set

01 Greeting By JB
02 Love Tractor >
03 Riders On The Storm >
04 Holden Oversoul >
05 Blue Indian
06 Climb To Safety 
07 Radio Child >
08 Trashy 
09 Little Lilly 
10 *Chainsaw City

Disc II 2nd Set

01 Walk On >
02 Bowl Legged Woman And A Knock-Kneed Man >
03 Tie Your Shoes >
04 Stop/Go 
05 Blight >
06 C Brown >
07 Fishwater >

Disc III 2nd Set Con't

01 Drum Solo >
02 I Walk On Guilded Splinters >
03 Fishwater 
04 Postcard
Encore:
05 Viscious 
06 Ballad Of John And Yoko 
07 Tall Boy

* With Steve Lopez On Percussion
# Third Time Played

John "JB" Bell - Guitar And Vocals
Jimmy Herring - Guitar
Dave Schools - Bass And Vocals
John "JoJo" Hermann - Keyboards And Vocals
Domingo "Sunny" Ortiz - Percussion
Duane Trucks - Drums

wsp2021-10-24d01t01.flac:f9721d0bf5057587b8164ace2d0776a4
wsp2021-10-24d01t02.flac:0599bc27611ed608f619d4c319e53d3a
wsp2021-10-24d01t03.flac:cb2251d1d856c5a92681477a83161714
wsp2021-10-24d01t04.flac:6b5e0ed465fcaace2f3404e01cfcc21b
wsp2021-10-24d01t05.flac:d4156f58f535d057ba0cea1e684516c4
wsp2021-10-24d01t06.flac:4941bf816457f28f63c27a1ae4d97db6
wsp2021-10-24d01t07.flac:52e85b3f4fa7ad432c5ce4879cacbaa1
wsp2021-10-24d01t08.flac:0da2b68140f4a874f338ecc7d5ffd567
wsp2021-10-24d01t09.flac:d9f8a115600bbac84d56674f4dcd2cc1
wsp2021-10-24d01t10.flac:02ce9180bd5c0ed81cdf2668f4f66961
wsp2021-10-24d02t01.flac:f397a3e430dc487c6bdce0ea1394caa4
wsp2021-10-24d02t02.flac:95dc1a27edead30e1d35c6fca417b486
wsp2021-10-24d02t03.flac:0686ae80c7606cd9383dc6d5e9d545b9
wsp2021-10-24d02t04.flac:91a98ea4a43c6966ba9109dd30d93a3a
wsp2021-10-24d02t05.flac:db306652bfb67957049899fe8cc2ac67
wsp2021-10-24d02t06.flac:1b87fb70735cbb7323c0b0f4cfd2f040
wsp2021-10-24d02t07.flac:d817c3ac5687d6efbe59cf48f11e3e4a
wsp2021-10-24d03t01.flac:659cc5f99c98b489f6b4e661660fcbe5
wsp2021-10-24d03t02.flac:cdbed429d007d02308249d5bb65d5a5f
wsp2021-10-24d03t03.flac:612887dcefcf61cb73f1b1cdaae101a2
wsp2021-10-24d03t04.flac:9cef164ad4430ccc3bf656cc15088930
wsp2021-10-24d03t05.flac:0091e8dcd79ec0e0a1fd2bb5f2cf0056
wsp2021-10-24d03t06.flac:9bd351fcdee6a52a0ee7f609a3ce90ab
wsp2021-10-24d03t07.flac:3b7227861d57f2296c18be484b1443e4

 length     expanded size    cdr  WAVE problems  fmt   ratio  filename
     0:35.60        6315164 B   ---   --   ---xx   flac  0.3427  wsp2021-10-24d01t01.flac
    10:26.39      110518172 B   ---   --   ---xx   flac  0.5170  wsp2021-10-24d01t02.flac
     9:20.69       98946332 B   ---   --   ---xx   flac  0.4515  wsp2021-10-24d01t03.flac
     7:34.47       80196188 B   ---   --   ---xx   flac  0.5278  wsp2021-10-24d01t04.flac
     5:21.31       56697356 B   ---   --   ---xx   flac  0.4379  wsp2021-10-24d01t05.flac
     6:57.19       73603532 B   ---   --   ---xx   flac  0.5160  wsp2021-10-24d01t06.flac
     7:34.33       80163260 B   ---   --   ---xx   flac  0.5507  wsp2021-10-24d01t07.flac
    10:09.39      107519372 B   ---   --   ---xx   flac  0.4692  wsp2021-10-24d01t08.flac
     6:58.12       73763468 B   ---   --   ---xx   flac  0.4813  wsp2021-10-24d01t09.flac
     9:46.59      103509212 B   ---   --   ---xx   flac  0.5520  wsp2021-10-24d01t10.flac
     7:52.13       83291420 B   ---   --   ---xx   flac  0.5195  wsp2021-10-24d02t01.flac
     8:50.04       93501452 B   ---   --   ---xx   flac  0.5172  wsp2021-10-24d02t02.flac
    13:36.19      143987132 B   ---   --   ---xx   flac  0.4926  wsp2021-10-24d02t03.flac
    10:12.39      108048572 B   ---   --   ---xx   flac  0.4637  wsp2021-10-24d02t04.flac
     8:36.35       91104764 B   ---   --   ---xx   flac  0.4852  wsp2021-10-24d02t05.flac
     6:28.45       68549084 B   ---   --   ---xx   flac  0.4583  wsp2021-10-24d02t06.flac
     7:58.31       84392156 B   ---   --   ---xx   flac  0.5692  wsp2021-10-24d02t07.flac
     4:47.32       50702108 B   ---   --   ---xx   flac  0.5203  wsp2021-10-24d03t01.flac
     7:51.35       83166764 B   ---   --   ---xx   flac  0.5444  wsp2021-10-24d03t02.flac
     4:09.19       43968332 B   ---   --   ---xx   flac  0.5820  wsp2021-10-24d03t03.flac
     4:52.21       51558236 B   ---   --   ---xx   flac  0.5463  wsp2021-10-24d03t04.flac
     5:09.02       54512348 B   ---   --   ---xx   flac  0.4459  wsp2021-10-24d03t05.flac
     3:53.69       41263532 B   ---   --   ---xx   flac  0.4931  wsp2021-10-24d03t06.flac
     7:01.11       74290316 B   ---   --   ---xx   flac  0.5405  wsp2021-10-24d03t07.flac
   176:04.33     1863568272 B                            0.5060  (24 files)





More information about the bittorrent mailing list