[bittorrent] Widespread Panic The Riverside Theatre Milwaukee, Wisconsin 10/23/2021 (Z-Man Schoeps CCM4V'S FOB)

Automated Mailer noreply-bt.e at etree.org
Sun Oct 24 06:20:44 UTC 2021


Band:           Widespread Panic
Torrent Name:   Widespread Panic The Riverside Theatre Milwaukee, Wisconsin 10/23/2021 (Z-Man Schoeps CCM4V'S FOB)
Uploaded by:    zmanatl
DB Link:        
Details:        http://bt.etree.org/details.php?id=614236

Contact the seeder at http://db.etree.org/zmanatl

If the link to this show does not work, it was probably removed for
being non-trade-friendly.

Description / text file:
-------------------------
Widespread Panic
The Riverside Theatre
Milwaukee, Wisconsin
10/23/2021

Source: Schoeps CCM4V'S>Lunatec V2>Sound Devices 722 (24/44.1)
FOB/DFC/KFC/ZFC/AARP 4th Row, Between Seets 1 & 2, 7' High
DSP: Sound Devices 722>Sound Forge 10.0>CD Wave>flac(16)
ID3 Tagged In Foobar 2000
Recorded By: Z-Man
Seeded By: Z-Man
A Team Dirty South Recording

Disc I 1st Set

01 The waker >
02 Send Your Mind >
03 Henry Parsons Died  
04 Good People >
05 Dark Bar >
06 Good People >
07 Diner >
08 Jam >
09 Ophelia >
10 The Shape I'm In 
11 Ain't Life Grand

Disc II 2nd Set

01 Thin Air (Smells Like Mississippi) >
02 Drivin' Song >
03 Disco >
04 Bear's Gone Fishin' >
05 Red Hot Mama >
06 Jam >
07 I'm Not Alone >
08 Drivin' Song >
09 Greta >
10 Jam >
11 Up All Night >
12 Flat Foot Flewzy

Disc III Encore

01 Stop Breakin' Down >
02 Porch Song

John "JB" Bell - Guitar And Vocals
Jimmy Herring - Guitar
Dave Schools - Bass And Vocals
John "JoJo" Hermann - Keyboards And Vocals
Domingo "Sunny" Ortiz - Percussion
Duane Trucks - Drums

wsp2021-10-23d01t01.flac:cfc3cb7ff62614f67024ac4420997118
wsp2021-10-23d01t02.flac:3823838fc182322c0c795e1698a1dde4
wsp2021-10-23d01t03.flac:6c0a3ac9e929cc15d3d3c0c4b363d1ef
wsp2021-10-23d01t04.flac:4e86b66d3da6f30f7caba740163c14c3
wsp2021-10-23d01t05.flac:2b240db30a24aae6c8e5012d19bd1050
wsp2021-10-23d01t06.flac:de86311b621899b8102d3dc8cda376f3
wsp2021-10-23d01t07.flac:a3f298bb3cfd24dbf825c4d5edcd250e
wsp2021-10-23d01t08.flac:c6ee7151c4c589ce832eb18865004a5f
wsp2021-10-23d01t09.flac:0516747f401f4ade0259ea0aca939116
wsp2021-10-23d01t10.flac:4615281ecdec016038207ebd23c574f1
wsp2021-10-23d01t11.flac:f3f32e47bf9fe9ab93ff373bf825fc08
wsp2021-10-23d02t01.flac:6f2c7a3d453d1c1954818c711e551fbd
wsp2021-10-23d02t02.flac:2dca44968b929dce8a5e609053f4f99e
wsp2021-10-23d02t03.flac:4521337dbb4c729901423d08bb65f557
wsp2021-10-23d02t04.flac:6aa26d961ff974f7f3648822e999d467
wsp2021-10-23d02t05.flac:e9f11d7f69b9e5e71ceb0c5405b232f6
wsp2021-10-23d02t06.flac:d0f8f2a47f668d0e6007bf5b0fb63149
wsp2021-10-23d02t07.flac:a1bc81942ecbabb1296cd49e25a47d08
wsp2021-10-23d02t08.flac:3888d062261655ffcc8544e185c35474
wsp2021-10-23d02t09.flac:cbcdf468ae6caea5344cb2640112b85f
wsp2021-10-23d02t10.flac:0354d09f8a10d526a3f009fae59d26a9
wsp2021-10-23d02t11.flac:b71b20e10e9610c008e8d6c8ff87953d
wsp2021-10-23d02t12.flac:4095f445bf15d8b33baa7a1cbb780bab
wsp2021-10-23d03t01.flac:4b2c21c63b29cb87861fe715abcb0768
wsp2021-10-23d03t02.flac:34191af2b66f5694512faab31f662757

 length     expanded size    cdr  WAVE problems  fmt   ratio  filename
     4:02.35       42771164 B   ---   --   ---xx   flac  0.5235  wsp2021-10-23d01t01.flac
     3:03.26       32342396 B   ---   --   ---xx   flac  0.5368  wsp2021-10-23d01t02.flac
     7:12.13       76235420 B   ---   --   ---xx   flac  0.5584  wsp2021-10-23d01t03.flac
     3:07.17       33026828 B   ---   --   ---xx   flac  0.5170  wsp2021-10-23d01t04.flac
     6:15.50       66267644 B   ---   --   ---xx   flac  0.4903  wsp2021-10-23d01t05.flac
     3:54.01       41279996 B   ---   --   ---xx   flac  0.5766  wsp2021-10-23d01t06.flac
    16:01.36      169605116 B   ---   --   ---xx   flac  0.5179  wsp2021-10-23d01t07.flac
     4:43.03       49928300 B   ---   --   ---xx   flac  0.5108  wsp2021-10-23d01t08.flac
     3:19.23       35157740 B   ---   --   ---xx   flac  0.5549  wsp2021-10-23d01t09.flac
     4:24.23       46623740 B   ---   --   ---xx   flac  0.5575  wsp2021-10-23d01t10.flac
     5:06.02       53983148 B   ---   --   ---xx   flac  0.5471  wsp2021-10-23d01t11.flac
    11:18.46      119707436 B   ---   --   ---xx   flac  0.4937  wsp2021-10-23d02t01.flac
     4:38.21       49088636 B   ---   --   ---xx   flac  0.5144  wsp2021-10-23d02t02.flac
     7:54.43       83714780 B   ---   --   ---xx   flac  0.5132  wsp2021-10-23d02t03.flac
     7:50.52       83030348 B   ---   --   ---xx   flac  0.5476  wsp2021-10-23d02t04.flac
     8:24.03       88912700 B   ---   --   ---xx   flac  0.5664  wsp2021-10-23d02t05.flac
     3:48.56       40350956 B   ---   --   ---xx   flac  0.4347  wsp2021-10-23d02t06.flac
     6:24.67       67895228 B   ---   --   ---xx   flac  0.4896  wsp2021-10-23d02t07.flac
     2:44.03       28936700 B   ---   --   ---xx   flac  0.5271  wsp2021-10-23d02t08.flac
     5:51.25       61975244 B   ---   --   ---xx   flac  0.5201  wsp2021-10-23d02t09.flac
     9:09.60       96984764 B   ---   --   ---xx   flac  0.5199  wsp2021-10-23d02t10.flac
     7:05.49       75085292 B   ---   --   ---xx   flac  0.5339  wsp2021-10-23d02t11.flac
     6:38.17       70247228 B   ---   --   ---xx   flac  0.5637  wsp2021-10-23d02t12.flac
     7:35.69       80424332 B   ---   --   ---xx   flac  0.5282  wsp2021-10-23d03t01.flac
     6:34.62       69647468 B   ---   --   ---xx   flac  0.5486  wsp2021-10-23d03t02.flac
   157:08.52     1663222604 B                            0.5269  (25 files)





More information about the bittorrent mailing list