[bittorrent] Frankly Scarlet 14th Annual Jerry Day Atlanta Terminal West Atlanta, Georgia 10/17/2021 (Z-Man Schoeps CCM4V'S FOB)

Automated Mailer noreply-bt.e at etree.org
Sat Oct 23 21:23:56 UTC 2021


Band:           Other
Torrent Name:   Frankly Scarlet 14th Annual Jerry Day Atlanta Terminal West Atlanta, Georgia 10/17/2021 (Z-Man Schoeps CCM4V'S FOB)
Uploaded by:    zmanatl
DB Link:        
Details:        http://bt.etree.org/details.php?id=614230

Contact the seeder at http://db.etree.org/zmanatl

If the link to this show does not work, it was probably removed for
being non-trade-friendly.

Description / text file:
-------------------------
Frankly Scarlet
14th Annual Jerry Day Atlanta
Terminal West
Atlanta, Georgia
10/17/2021

Source: Schoeps CCM4V'S>Lunatec V2>Sound Devices 722 (24/44.1)
FOB/OTS/DRFC/KFC/ZFC/AARP 6' From Stage, 7' High
DSP: Sound Devices 722>Sound Forge 10.0>CD Wave>flac(16)
ID3 Tagged In Foobar 2000
Recorded By: Z-Man
Seeded By: Z-Man
A Team Dirty South Recording

Disc I 1st Set

01 Introduction By Lewis 
02 Passenger
03 Deal
04 Cosmic Charlie
05 Cumberland Blues
06 St. Stephen >
07 Jam >
08 Truckin' 
09 Casey Jones
10 T-Dawg Outro

frankly2021-10-17d01t01.flac:846e93dc92e21813eba3146f9c697f5c
frankly2021-10-17d01t02.flac:5d33f8bbbf08d4551876c40330e686cc
frankly2021-10-17d01t03.flac:2564c1505acc1481e1a497e5ec014a8a
frankly2021-10-17d01t04.flac:c35d303962ef24f06803519d9ad304f6
frankly2021-10-17d01t05.flac:faaf69f9102fc52839862b1465c328d6
frankly2021-10-17d01t06.flac:15278f50285f916aad8b06ac468faca9
frankly2021-10-17d01t07.flac:4bcdcd666188a80ded45ee9513d44177
frankly2021-10-17d01t08.flac:d9e7ad0f189f1b527b8e0fb5163d7839
frankly2021-10-17d01t09.flac:92f26a05d6f8ecbf50059e4ceba78ba0
frankly2021-10-17d01t10.flac:a81ef32c9cfe8b374b6d58361dfcbeb5

  length     expanded size    cdr  WAVE problems  fmt   ratio  filename
     1:26.25       15229244 B   ---   --   ---xx   flac  0.3938  frankly2021-10-17d01t01.flac
     5:02.18       53315180 B   ---   --   ---xx   flac  0.6115  frankly2021-10-17d01t02.flac
     7:34.17       80125628 B   ---   --   ---xx   flac  0.5640  frankly2021-10-17d01t03.flac
     6:23.32       67636508 B   ---   --   ---xx   flac  0.5204  frankly2021-10-17d01t04.flac
    13:37.74      144292892 B   ---   --   ---xx   flac  0.5326  frankly2021-10-17d01t05.flac
     7:30.74       79554092 B   ---   --   ---xx   flac  0.5600  frankly2021-10-17d01t06.flac
     5:28.14       57892172 B   ---   --   ---xx   flac  0.5825  frankly2021-10-17d01t07.flac
     8:35.46       90954236 B   ---   --   ---xx   flac  0.5504  frankly2021-10-17d01t08.flac
     5:11.49       54975692 B   ---   --   ---xx   flac  0.5665  frankly2021-10-17d01t09.flac
     0:50.30        8890604 B   ---   --   ---xx   flac  0.3561  frankly2021-10-17d01t10.flac
    61:41.04      652866248 B                            0.5491  (10 files)










More information about the bittorrent mailing list