[bittorrent] Widespread Panic The Riverside Theatre Milwaukee, Wisconsin 10/22/2021 (Z-Man Schoeps CCM4V'S FOB)

Automated Mailer noreply-bt.e at etree.org
Sat Oct 23 06:25:10 UTC 2021


Band:           Widespread Panic
Torrent Name:   Widespread Panic The Riverside Theatre Milwaukee, Wisconsin 10/22/2021 (Z-Man Schoeps CCM4V'S FOB)
Uploaded by:    zmanatl
DB Link:        
Details:        http://bt.etree.org/details.php?id=614225

Contact the seeder at http://db.etree.org/zmanatl

If the link to this show does not work, it was probably removed for
being non-trade-friendly.

Description / text file:
-------------------------
Widespread Panic
The Riverside Theatre
Milwaukee, Wisconsin
10/22/2021

Source: Schoeps CCM4V'S>Lunatec V2>Sound Devices 722 (24/44.1)
FOB/DFC/KFC/ZFC/AARP 4th Row, Between Seets 1 & 2, 7' High
DSP: Sound Devices 722>Sound Forge 10.0>CD Wave>flac(16)
ID3 Tagged In Foobar 2000
Recorded By: Z-Man
Seeded By: Z-Man
A Team Dirty South Recording

Disc I 1st Set

01 Greeting By JB
02 Pilgrims 
03 Fixin' To Die 
04 Airplane >
05 Take-Off Jam >
06 Wonderin' >
07 Space Wrangler
08 Dyin' Man >
09 Watchin' The Sleepin' Man
10 Provin' Ground >
11 Mr. Soul

Disc II 2nd Set

01 All Time Low >
02 Jam >
03 Ride Me High >
04 Let It Rock >
05 Big Wooly Mammoth

Disc III 2nd Set Con't 

01 Gradle >
02 Gimme >
03 Entering A Black Hole Backwards >
04 Chilly Water >
05 Four-Cornered Room >
06 Chilly Water >
07 Life During Wartime
Encore:
08 Old Joe 
09 Honey Bee

John "JB" Bell - Guitar And Vocals
Jimmy Herring - Guitar
Dave Schools - Bass And Vocals
John "JoJo" Hermann - Keyboards And Vocals
Domingo "Sunny" Ortiz - Percussion
Duane Trucks - Drums

wsp2021-10-22d01t01.flac:e4542c837239cd7ec6e249f0d82528be
wsp2021-10-22d01t02.flac:60d02763fc4235f5d0fd59bdc6196575
wsp2021-10-22d01t03.flac:b499f552b7470a1de1d20af67e63dafd
wsp2021-10-22d01t04.flac:10a8117c6e8a3f1b8dfc133209eeb4b2
wsp2021-10-22d01t05.flac:f10df27f6a13c06f67ce565076ea8d11
wsp2021-10-22d01t06.flac:603844644a3c5a7e7b25e970b74981a0
wsp2021-10-22d01t07.flac:0e54e9065273ab781b242cca37481f9e
wsp2021-10-22d01t08.flac:aa693f6e85d69daf0461e4b30e66ecf9
wsp2021-10-22d01t09.flac:7348f051c134c9c640063b18a98a2641
wsp2021-10-22d01t10.flac:bca014299f16fdb87ef7813ec08b2676
wsp2021-10-22d01t11.flac:38c688aa6df6bccc47cf095a9f31152f
wsp2021-10-22d02t01.flac:092111b8d52ef4cb719f613eed567d5a
wsp2021-10-22d02t02.flac:9c1ed8efce35c8746336aad3bf584866
wsp2021-10-22d02t03.flac:d72b68150c54ed9643e28ad398946b72
wsp2021-10-22d02t04.flac:577ad9afbb52ca781b1cd670e4b4b6ea
wsp2021-10-22d02t05.flac:26ae45f0294a5b5cb13c55975dcb2a54
wsp2021-10-22d03t01.flac:82b157077fd69f906892d922b1de1fe4
wsp2021-10-22d03t02.flac:7ec1f5b60957adc86fb0ef97f9f88589
wsp2021-10-22d03t03.flac:471f1ece389b8de73c3d6c104f326df3
wsp2021-10-22d03t04.flac:98a61fc879d4532b9647b3a2fc055ac0
wsp2021-10-22d03t05.flac:834d4fb21c9757f59e662392cea4918a
wsp2021-10-22d03t06.flac:11a5ae41c15620a078240663c8696162
wsp2021-10-22d03t07.flac:695ce0f0f7189a45461479775864ab42
wsp2021-10-22d03t08.flac:6e027d4eed01c97719f38cac63908a22
wsp2021-10-22d03t09.flac:7048074cacd803bb5d71dc8e0bce803d

 length     expanded size    cdr  WAVE problems  fmt   ratio  filename
     0:40.12        7084268 B   ---   --   ---xx   flac  0.3562  wsp2021-10-22d01t01.flac
     8:53.25       94080044 B   ---   --   ---xx   flac  0.5043  wsp2021-10-22d01t02.flac
     6:23.22       67612988 B   ---   --   ---xx   flac  0.5327  wsp2021-10-22d01t03.flac
     6:26.22       68142188 B   ---   --   ---xx   flac  0.4890  wsp2021-10-22d01t04.flac
     4:41.33       49646060 B   ---   --   ---xx   flac  0.5321  wsp2021-10-22d01t05.flac
     7:50.74       83082092 B   ---   --   ---xx   flac  0.5402  wsp2021-10-22d01t06.flac
    11:36.09      122795612 B   ---   --   ---xx   flac  0.5189  wsp2021-10-22d01t07.flac
     4:37.67       49020428 B   ---   --   ---xx   flac  0.5835  wsp2021-10-22d01t08.flac
     7:47.08       82397660 B   ---   --   ---xx   flac  0.5779  wsp2021-10-22d01t09.flac
     8:22.69       88715132 B   ---   --   ---xx   flac  0.5430  wsp2021-10-22d01t10.flac
     6:56.34       73462412 B   ---   --   ---xx   flac  0.5700  wsp2021-10-22d01t11.flac
     6:41.35       70818764 B   ---   --   ---xx   flac  0.5095  wsp2021-10-22d02t01.flac
     5:48.35       61469564 B   ---   --   ---xx   flac  0.4691  wsp2021-10-22d02t02.flac
    12:35.03      133189100 B   ---   --   ---xx   flac  0.5103  wsp2021-10-22d02t03.flac
     7:36.10       80461964 B   ---   --   ---xx   flac  0.4836  wsp2021-10-22d02t04.flac
     7:23.31       78218156 B   ---   --   ---xx   flac  0.5433  wsp2021-10-22d02t05.flac
     7:10.06       75866156 B   ---   --   ---xx   flac  0.4859  wsp2021-10-22d03t01.flac
     8:36.69       91184732 B   ---   --   ---xx   flac  0.4426  wsp2021-10-22d03t02.flac
     4:07.08       43589660 B   ---   --   ---xx   flac  0.5306  wsp2021-10-22d03t03.flac
     7:36.24       80494892 B   ---   --   ---xx   flac  0.5426  wsp2021-10-22d03t04.flac
    10:01.35      106098764 B   ---   --   ---xx   flac  0.5048  wsp2021-10-22d03t05.flac
     3:53.21       41150636 B   ---   --   ---xx   flac  0.5829  wsp2021-10-22d03t06.flac
     6:36.35       69936764 B   ---   --   ---xx   flac  0.5742  wsp2021-10-22d03t07.flac
     3:59.72       42328988 B   ---   --   ---xx   flac  0.3885  wsp2021-10-22d03t08.flac
     7:16.51       77030396 B   ---   --   ---xx   flac  0.5342  wsp2021-10-22d03t09.flac
   173:38.60     1837877420 B                            0.5192  (25 files)





More information about the bittorrent mailing list