[bittorrent] Mikaela Davis And Southern Star Garcia's The Capitol Theatre Port Chester, New York 10/20/2021 (Z-Man Schoeps CCM4V'S FOB)

Automated Mailer noreply-bt.e at etree.org
Fri Oct 22 19:21:01 UTC 2021


Band:           Other
Torrent Name:   Mikaela Davis And Southern Star Garcia's The Capitol Theatre Port Chester, New York 10/20/2021 (Z-Man Schoeps CCM4V'S FOB)
Uploaded by:    zmanatl
DB Link:        
Details:        http://bt.etree.org/details.php?id=614223

Contact the seeder at http://db.etree.org/zmanatl

If the link to this show does not work, it was probably removed for
being non-trade-friendly.

Description / text file:
-------------------------
Mikaela Davis And Southern Star
Garcia's
The Capitol Theatre
Port Chester, New York
10/20/2021

Source: Schoeps CCM4V'S>Lunatec V2>Sound Devices 722 (24/44.1)
FOB/DFC/KFC/ZFC/AARP 3' From Stage, 7' High
DSP: Sound Devices 722>Sound Forge 10.0>CD Wave>flac(16)
ID3 Tagged In Foobar 2000
Recorded By: Z-Man
Seeded By: Z-Man
A Team Dirty South Recording

Disc I 

01 Little Bird
02 To Play For All Of You
03 Emily
04 Band Introductions
05 I Hear A Voice Calling
06 Ripple
07 Far From You
08 Letter I'll Never Send 
09 Promise
10 Get Gone 
11 Home In The Country
12 Other Lover
13 Cinderella
14 Mountains Of The Moon
15 Don't Stop Now

Mikaela Davis - Harp And Vocals
Shane McCarthy - Mandolin, Bass, And Vocals
Keenan McCarthy - Acoustic Guitar, Electric Guitar, And Vocals
Kurt Johnson - Slide Steel Guitar And Dobro

mikaela2021-10-20d01T01.flac:90ed90c84eed9ac5fc0113daff2feb99
mikaela2021-10-20d01T02.flac:47e6abac04981ea04c220eb9921767ea
mikaela2021-10-20d01T03.flac:2bae92b35b3cb5949474d5fec67c7770
mikaela2021-10-20d01T04.flac:3af2f5528b5d0a6e3aeba0085542ab75
mikaela2021-10-20d01T05.flac:2457ead6ace657e250ca9b5c34bdfbe5
mikaela2021-10-20d01T06.flac:3b693ce79fc618b029bdd6b0d55f0172
mikaela2021-10-20d01T07.flac:1be67a158d7aa67f2e90bc75f4ad830c
mikaela2021-10-20d01T08.flac:3ddc7f480bc749568ec991c2f34132a7
mikaela2021-10-20d01T09.flac:2afca6cf5e0553fbdfba1becf2f1eb7e
mikaela2021-10-20d01T10.flac:7f6b620ebff6556b5488bad3043cd585
mikaela2021-10-20d01T11.flac:66ad0302f503b05da6af07f79be9498e
mikaela2021-10-20d01T12.flac:3bee52a2822b023183509ae1e5d81ccb
mikaela2021-10-20d01T13.flac:f9024097446f52aa41b5acff497d009b
mikaela2021-10-20d01T14.flac:e3206bcadda2fdb129ab89926f9cc257
mikaela2021-10-20d01T15.flac:d7ef7065f41202e07fbc296c940ba132

length     expanded size    cdr  WAVE problems  fmt   ratio  filename
     5:22.07       56817308 B   ---   --   ---xx   flac  0.4098  mikaela2021-10-20d01T01.flac
     6:22.72       67554188 B   ---   --   ---xx   flac  0.3660  mikaela2021-10-20d01T02.flac
     4:43.01       49923596 B   ---   --   ---xx   flac  0.4003  mikaela2021-10-20d01T03.flac
     0:39.49        6994892 B   ---   --   ---xx   flac  0.3576  mikaela2021-10-20d01T04.flac
     3:46.55       39995804 B   ---   --   ---xx   flac  0.3834  mikaela2021-10-20d01T05.flac
     6:18.40       66773324 B   ---   --   ---xx   flac  0.3698  mikaela2021-10-20d01T06.flac
     4:36.65       48839324 B   ---   --   ---xx   flac  0.3566  mikaela2021-10-20d01T07.flac
     3:53.62       41247068 B   ---   --   ---xx   flac  0.4216  mikaela2021-10-20d01T08.flac
     3:33.64       37723772 B   ---   --   ---xx   flac  0.3980  mikaela2021-10-20d01T09.flac
     6:32.52       69271148 B   ---   --   ---xx   flac  0.3846  mikaela2021-10-20d01T10.flac
     4:42.33       49822460 B   ---   --   ---xx   flac  0.4027  mikaela2021-10-20d01T11.flac
     9:07.15       96526124 B   ---   --   ---xx   flac  0.4143  mikaela2021-10-20d01T12.flac
     5:47.14       61243772 B   ---   --   ---xx   flac  0.3934  mikaela2021-10-20d01T13.flac
     6:36.40       69948524 B   ---   --   ---xx   flac  0.3945  mikaela2021-10-20d01T14.flac
     7:38.62       80937068 B   ---   --   ---xx   flac  0.4287  mikaela2021-10-20d01T15.flac
    79:42.31      843618372 B                            0.3952  (15 files)
 





More information about the bittorrent mailing list