[bittorrent] Widespread Panic The Riverside Theatre Milwaukee, Wisconsin 10/21/2021 (Z-Man Schoeps CCM4V'S FOB)

Automated Mailer noreply-bt.e at etree.org
Fri Oct 22 07:18:20 UTC 2021


Band:           Widespread Panic
Torrent Name:   Widespread Panic The Riverside Theatre Milwaukee, Wisconsin 10/21/2021 (Z-Man Schoeps CCM4V'S FOB)
Uploaded by:    zmanatl
DB Link:        
Details:        http://bt.etree.org/details.php?id=614215

Contact the seeder at http://db.etree.org/zmanatl

If the link to this show does not work, it was probably removed for
being non-trade-friendly.

Description / text file:
-------------------------
Widespread Panic
The Riverside Theatre
Milwaukee, Wisconsin
10/21/2021

Source: Schoeps CCM4V'S>Lunatec V2>Sound Devices 722 (24/44.1)
FOB/DFC/KFC/ZFC/AARP 4th Row, Between Seets 1 & 2, 7' High
DSP: Sound Devices 722>Sound Forge 10.0>CD Wave>flac(16)
ID3 Tagged In Foobar 2000
Recorded By: Z-Man
Seeded By: Z-Man
A Team Dirty South Recording

Disc I 1st Set

01 Greeting By JB
02 Bust It Big >
03 Jam >
04 Knockin' Around The Zoo >
05 Better Off 
06 Pickin' Up The Pieces >
07 Jaded Tourist >
08 You Should Be Glad >
09 Rebirtha
10 Let's Get The Show On The Road >
11 Junior

Disc II 2nd Set

01 Surprise Valley >
02 Low Spark Of High-Heeled Boys >
03 Shut Up And Drive >
04 Impossible >
05 *Jam >
06 Drum Solo >

Disc III 2nd Set Con't 

01 Cease Fire >
02 Jamais Vu >
03 Low Spark Of High-Heeled Boys >
04 Surprise Valley >
05 You Got Yours >
06 Cream Puff War
Encore:
07 Jack >
08 Imitation Leather Shoes

* With Other One Tease

John "JB" Bell - Guitar And Vocals
Jimmy Herring - Guitar
Dave Schools - Bass And Vocals
John "JoJo" Hermann - Keyboards And Vocals
Domingo "Sunny" Ortiz - Percussion
Duane Trucks - Drums

wsp2021-10-21d01t01.flac:00de542c2c58657463b8f0c15edb352e
wsp2021-10-21d01t02.flac:eceb25a996c5b012e71faafa6c589869
wsp2021-10-21d01t03.flac:d1112cf9af9655a5ac59f9ec479f7fce
wsp2021-10-21d01t04.flac:6cc08f2fb3496d92939e666d5b4bd4d2
wsp2021-10-21d01t05.flac:d7920cdd5646849813781d8cbcfb3f87
wsp2021-10-21d01t06.flac:7070f64b5feec35b91bfade35c54f72b
wsp2021-10-21d01t07.flac:97b7f2b803641428da0a900cc125edef
wsp2021-10-21d01t08.flac:22feb234965b355c19fdaa7022ab1b45
wsp2021-10-21d01t09.flac:36c2693ef01e194c660a70857944e3c4
wsp2021-10-21d01t10.flac:6c9ed0952954fab0cb01b5402bb053f9
wsp2021-10-21d01t11.flac:d81b423d7c56da9864a51c1d20ece992
wsp2021-10-21d02t01.flac:f9c903ba7e95194b0955abdf44f7bcdd
wsp2021-10-21d02t02.flac:e7066ac626a3434a95f765e46afeaa96
wsp2021-10-21d02t03.flac:a654a54deebf80d7dc5feac896731c08
wsp2021-10-21d02t04.flac:64ce09e6ad27ee78db3e58398800e1f2
wsp2021-10-21d02t05.flac:c9dc467efb8aa17d29877ad70058622e
wsp2021-10-21d02t06.flac:71a5317d8860c2ea2b48114f6a01c56a
wsp2021-10-21d03t01.flac:403f8346ab235121416a3ae08f32917f
wsp2021-10-21d03t02.flac:51ff1c1134d62f036eb53b67789a1055
wsp2021-10-21d03t03.flac:38af2965dfc674477422f106c29c2590
wsp2021-10-21d03t04.flac:055aa5f4202b0439137446b500b40a23
wsp2021-10-21d03t05.flac:1281e9ff67ac881c5dbda82fc061cdfe
wsp2021-10-21d03t06.flac:b0a60fda23f2d5ac97494467a041d5dc
wsp2021-10-21d03t07.flac:470f7a73589edab48e80688e6a72505f
wsp2021-10-21d03t08.flac:ca77b814468f297ef2b207d7bc4a0c08

length     expanded size    cdr  WAVE problems  fmt   ratio  filename
     0:33.44        5924732 B   ---   --   ---xx   flac  0.3773  wsp2021-10-21d01t01.flac
     7:47.02       82383548 B   ---   --   ---xx   flac  0.5194  wsp2021-10-21d01t02.flac
     5:18.04       56104652 B   ---   --   ---xx   flac  0.5108  wsp2021-10-21d01t03.flac
     6:20.61       67175516 B   ---   --   ---xx   flac  0.5257  wsp2021-10-21d01t04.flac
     6:37.73       70202540 B   ---   --   ---xx   flac  0.5201  wsp2021-10-21d01t05.flac
     7:35.21       80311436 B   ---   --   ---xx   flac  0.5011  wsp2021-10-21d01t06.flac
     8:40.32       91803308 B   ---   --   ---xx   flac  0.5176  wsp2021-10-21d01t07.flac
    12:23.66      131220476 B   ---   --   ---xx   flac  0.5535  wsp2021-10-21d01t08.flac
     9:06.17       96354428 B   ---   --   ---xx   flac  0.5314  wsp2021-10-21d01t09.flac
     6:50.42       72422828 B   ---   --   ---xx   flac  0.4475  wsp2021-10-21d01t10.flac
     7:37.61       80758316 B   ---   --   ---xx   flac  0.5734  wsp2021-10-21d01t11.flac
     8:42.03       92087900 B   ---   --   ---xx   flac  0.5210  wsp2021-10-21d02t01.flac
    12:19.44      130463132 B   ---   --   ---xx   flac  0.4974  wsp2021-10-21d02t02.flac
     9:50.64      104226572 B   ---   --   ---xx   flac  0.5197  wsp2021-10-21d02t03.flac
     5:07.66       54310076 B   ---   --   ---xx   flac  0.5224  wsp2021-10-21d02t04.flac
     4:51.74       51506492 B   ---   --   ---xx   flac  0.5185  wsp2021-10-21d02t05.flac
     9:58.71      105654236 B   ---   --   ---xx   flac  0.4533  wsp2021-10-21d02t06.flac
     8:57.30       94797404 B   ---   --   ---xx   flac  0.4996  wsp2021-10-21d03t01.flac
    10:05.55      106851404 B   ---   --   ---xx   flac  0.5113  wsp2021-10-21d03t02.flac
     2:44.74       29103692 B   ---   --   ---xx   flac  0.4771  wsp2021-10-21d03t03.flac
     3:56.05       41642204 B   ---   --   ---xx   flac  0.5357  wsp2021-10-21d03t04.flac
     7:15.29       76802252 B   ---   --   ---xx   flac  0.5218  wsp2021-10-21d03t05.flac
     3:28.46       36799436 B   ---   --   ---xx   flac  0.5440  wsp2021-10-21d03t06.flac
     8:23.74       88903292 B   ---   --   ---xx   flac  0.4855  wsp2021-10-21d03t07.flac
     4:59.54       52870652 B   ---   --   ---xx   flac  0.5554  wsp2021-10-21d03t08.flac
   179:34.62     1900680524 B                            0.5138  (25 files)





More information about the bittorrent mailing list