[bittorrent] Phil Lesh And Friends The Capitol Theatre Port Chester, New York 10/20/2021 (Z-Man Schoeps CCM4V'S FOB)

Automated Mailer noreply-bt.e at etree.org
Thu Oct 21 06:14:46 UTC 2021


Band:           Phil Lesh & Friends
Torrent Name:   Phil Lesh And Friends  The Capitol Theatre Port Chester, New York 10/20/2021 (Z-Man Schoeps CCM4V'S FOB)
Uploaded by:    zmanatl
DB Link:        
Details:        http://bt.etree.org/details.php?id=614208

Contact the seeder at http://db.etree.org/zmanatl

If the link to this show does not work, it was probably removed for
being non-trade-friendly.

Description / text file:
-------------------------
Phil Lesh And Friends 
The Capitol Theatre
Port Chester, New York
10/20/2021

Source: Schoeps CCM4V'S>Lunatec V2>Sound Devices 722 (24/44.1)
FOB/OTS/DRFC/KFC/ZFC/AARP 35' From Stage, 7 1/2' High
DSP: Sound Devices 722>Sound Forge 10.0>CD Wave>flac(16)
ID3 Tagged In Foobar 2000
Recorded By: Z-Man
Seeded By: Z-Man
A Team Dirty South Recording

Disc I 1st Set

01 Jack Straw
02 When I Paint My Masterpiece
03 Ship Of Fools 
04 Peggy-O
05 Tennessee Jed
06 Touch Ofn Grey

Disc II 2nd Set

01 Truckin' >
02 So Many Roads
03 Caledonia Mission 
04 Bird Song 
05 Let It Grow

Disc III 2nd Set Con't 

01 Stella Blue
02 Rag Mama Rag >
03 *Not Fade Away 
04 Morning Dew
Encore:
05 Phil Donor Rap
06 Attics Of My Life 

* With Mountain Jam Jam

Phil Lesh -  Bass And Vocals
Grahame Lesh - Guitar And Vocals
Josh Kaufman - Guitar 
Eric D. Johnson - Guitar And Vocals
Benmont Tench - Keyboards
Stuart Bogie - Saxophone, Flute, And Clarinet
Joe Russo - Drums
Amy Helm - Vocals

phil2021-10-20d01t01.flac:f56044dfe28956aed9c9f333de1bcf2d
phil2021-10-20d01t02.flac:93f8ad551b174707195461490415fcfa
phil2021-10-20d01t03.flac:79d8a5886077b9bd74223198333f5955
phil2021-10-20d01t04.flac:710562a6f770c218f2cd3ef3bc700093
phil2021-10-20d01t05.flac:f0903f3c098c17f7a1b45a7b3d2aec88
phil2021-10-20d01t06.flac:281d5166ca1d79d93ff3fd4dde1a7d18
phil2021-10-20d02t01.flac:c33b1245ed8004387d35e4de8cea0aa5
phil2021-10-20d02t02.flac:5819353f5d02aba04e6f2a7376567246
phil2021-10-20d02t03.flac:4d37ae386574db5ce25391b6a7ae8ab9
phil2021-10-20d02t04.flac:32c15a4b1c4f4fdaa3043a2b650853bd
phil2021-10-20d02t05.flac:7d61cfe520790c8e1c6dc87ba5c06a21
phil2021-10-20d03t01.flac:db6bf4c3b09bc69ada26315585723d50
phil2021-10-20d03t02.flac:0d95ed658af528eb2baf547bd7c7583a
phil2021-10-20d03t03.flac:d9fd7601d5eaf44ee0495808f3421460
phil2021-10-20d03t04.flac:f98295128a3e328e708a414754e6253a
phil2021-10-20d03t05.flac:c7e72274da7702ee11ad4e5dbf36a5ad
phil2021-10-20d03t06.flac:bf05f53d8086dd212b4f118abf381468

 length     expanded size    cdr  WAVE problems  fmt   ratio  filename
    12:48.56      135606956 B   ---   --   ---xx   flac  0.5091  phil2021-10-20d01t01.flac
     9:20.21       98833436 B   ---   --   ---xx   flac  0.5070  phil2021-10-20d01t02.flac
     6:39.33       70461260 B   ---   --   ---xx   flac  0.4536  phil2021-10-20d01t03.flac
    13:07.21      138876236 B   ---   --   ---xx   flac  0.4499  phil2021-10-20d01t04.flac
     9:30.65      100700924 B   ---   --   ---xx   flac  0.5044  phil2021-10-20d01t05.flac
     7:35.68       80421980 B   ---   --   ---xx   flac  0.5446  phil2021-10-20d01t06.flac
    11:10.24      118244492 B   ---   --   ---xx   flac  0.5205  phil2021-10-20d02t01.flac
     9:32.11      100926716 B   ---   --   ---xx   flac  0.4763  phil2021-10-20d02t02.flac
     6:55.37       73293068 B   ---   --   ---xx   flac  0.4997  phil2021-10-20d02t03.flac
    15:15.34      161486012 B   ---   --   ---xx   flac  0.4517  phil2021-10-20d02t04.flac
    13:43.00      145177244 B   ---   --   ---xx   flac  0.5438  phil2021-10-20d02t05.flac
    11:04.36      117214316 B   ---   --   ---xx   flac  0.4526  phil2021-10-20d03t01.flac
     5:31.73       58560140 B   ---   --   ---xx   flac  0.5484  phil2021-10-20d03t02.flac
     7:52.28       83326700 B   ---   --   ---xx   flac  0.5150  phil2021-10-20d03t03.flac
    14:02.67      148686428 B   ---   --   ---xx   flac  0.4484  phil2021-10-20d03t04.flac
     2:43.44       28856732 B   ---   --   ---xx   flac  0.4057  phil2021-10-20d03t05.flac
     6:23.51       67681196 B   ---   --   ---xx   flac  0.4054  phil2021-10-20d03t06.flac
   163:17.69     1728353836 B                            0.4861  (17 files)




More information about the bittorrent mailing list