[bittorrent] Clare Maloney And The Great Adventure Garcia's The Capitol Theatre Port Chester, New York 10/19/2021 (Z-Man Schoeps CCM4V'S FOB)

Automated Mailer noreply-bt.e at etree.org
Wed Oct 20 14:17:54 UTC 2021


Band:           Other
Torrent Name:   Clare Maloney And The Great Adventure Garcia's The Capitol Theatre Port Chester, New York 10/19/2021 (Z-Man Schoeps CCM4V'S FOB)
Uploaded by:    zmanatl
DB Link:        
Details:        http://bt.etree.org/details.php?id=614202

Contact the seeder at http://db.etree.org/zmanatl

If the link to this show does not work, it was probably removed for
being non-trade-friendly.

Description / text file:
-------------------------
Clare Maloney And The Great Adventure
Garcia's
The Capitol Theatre
Port Chester, New York
10/19/2021

Source: Schoeps CCM4V'S>Lunatec V2>Sound Devices 722 (24/44.1)
FOB/OTS/DRFC/KFC/ZFC/AARP 3' From Stage, 7' High
DSP: Sound Devices 722>Sound Forge 10.0>CD Wave>flac(16)
ID3 Tagged In Foobar 2000
Recorded By: Z-Man
Seeded By: Z-Man
A Team Dirty South Recording

Disc I 

01 Greeting
02 Legend Lives On 
03 Roadhouse Blues >
04 New Speedway Boogie >
05 Roadhouse Blues
06 Dream Within A Dream
07 Raise Hell
08 Band Introductions
09 Loser
10 Gimme Shelter
11 Mr. Charlie >
12 Highway To Hell
13 Cortez The Killer
14 Makin' My Way Up
15 Goin' To California
16 Band Introductions
17 White Rabbit

Clare Maloney - Electric Guitar, Acoustic Guitar, Bass, And Vocals
Nathan DeBrine - Electric Guitar, Acoustic Guitar, Bass, And Vocals
Russ Gottlieb -  Bass And Electric Banjo
Scott Chezlin - Lap Steel Guitar And Keyboards
Nathan Graham - Drums

** This Is The Band's 4th Show Ever.

clare2021-10-19d01t01.flac:fe2352a9889a023d0699007585cf8c28
clare2021-10-19d01t02.flac:ff6e49e4d3ad048ceb6597a63d47bc3a
clare2021-10-19d01t03.flac:5eabbbf6548b6711bd6cd997dbbd1409
clare2021-10-19d01t04.flac:f535db205c1b828dec75949c578c6bf2
clare2021-10-19d01t05.flac:bb7a525838b97419bcefaaae7c92651d
clare2021-10-19d01t06.flac:29383e39a97faad8a6c2c43e6b432ff4
clare2021-10-19d01t07.flac:938a0aa34016fa4b2eb39b19ebad3d7a
clare2021-10-19d01t08.flac:812f41e8cb272f8d1520149a31bf2fa0
clare2021-10-19d01t09.flac:05c665b226b9fa4700e27b8b15c1aab4
clare2021-10-19d01t10.flac:d6c544e601efc8a6702fee6bf0dbd415
clare2021-10-19d01t11.flac:2197499c27a77e01885caa6735b5f4f4
clare2021-10-19d01t12.flac:e5ccc6427c2e712fd17814e849ee7dde
clare2021-10-19d01t13.flac:278c799d555d6bb2d2382657b89bf27a
clare2021-10-19d01t14.flac:08577ec3db23a7dfd102434bc2e13582
clare2021-10-19d01t15.flac:a64e84ca93ffb9dab4b5202a781f88e1
clare2021-10-19d01t16.flac:1ba267d149dc0155e1e7e9cfa9e31c7a
clare2021-10-19d01t17.flac:456ac938d9e590a00fa4c42388bac898

 length     expanded size    cdr  WAVE problems  fmt   ratio  filename
     1:50.49       19519292 B   ---   --   ---xx   flac  0.3553  clare2021-10-19d01t01.flac
     4:14.03       44812700 B   ---   --   ---xx   flac  0.4875  clare2021-10-19d01t02.flac
     4:29.40       47545724 B   ---   --   ---xx   flac  0.4672  clare2021-10-19d01t03.flac
     4:20.49       45979292 B   ---   --   ---xx   flac  0.5004  clare2021-10-19d01t04.flac
     1:45.30       18592604 B   ---   --   ---xx   flac  0.4757  clare2021-10-19d01t05.flac
     4:21.29       46108652 B   ---   --   ---xx   flac  0.4123  clare2021-10-19d01t06.flac
     4:21.45       46146284 B   ---   --   ---xx   flac  0.4988  clare2021-10-19d01t07.flac
     1:08.26       12056396 B   ---   --   ---xx   flac  0.2700  clare2021-10-19d01t08.flac
     8:32.18       90359180 B   ---   --   ---xx   flac  0.4355  clare2021-10-19d01t09.flac
     6:21.30       67279004 B   ---   --   ---xx   flac  0.4694  clare2021-10-19d01t10.flac
     5:41.02       60157148 B   ---   --   ---xx   flac  0.4408  clare2021-10-19d01t11.flac
     5:34.55       59047004 B   ---   --   ---xx   flac  0.4787  clare2021-10-19d01t12.flac
     6:54.07       73046108 B   ---   --   ---xx   flac  0.4360  clare2021-10-19d01t13.flac
     5:14.57       55523708 B   ---   --   ---xx   flac  0.5301  clare2021-10-19d01t14.flac
     4:35.48       48622940 B   ---   --   ---xx   flac  0.4347  clare2021-10-19d01t15.flac
     1:46.45       18804284 B   ---   --   ---xx   flac  0.3413  clare2021-10-19d01t16.flac
     8:40.65       91880924 B   ---   --   ---xx   flac  0.4744  clare2021-10-19d01t17.flac
    79:52.73      845481244 B                            0.4569  (17 files)





More information about the bittorrent mailing list